Loading...
Error

Скачать Бронкская история / A Bronx Tale (Роберт Де Ниро / Robert De Niro) [1993, драма, криминал, HDRip] 3x[AVO] ( Ю.Живов, Л.Володарский, С.Визгунов ) торрент без регистрации

 
Статистика раздачи
Размер:  2,38 GB   |    Скачан:  115 раз
Сидов:  1  [  0 KB/s  ]  
 
Автор Сообщение

leon030982

[] 

Бронкская история / A Bronx Tale


Год выпуска: 1993
Страна: США
Жанр: драма, криминал
Продолжительность: 02:01:32
Перевод 1: Авторский (одноголосый) [Ю.Живов]
Перевод 2: Авторский (одноголосый) [Л.Володарский]
Перевод 3: Авторский (одноголосый) [С.Визгунов]
Cубтитры: нет
Режиссер: Роберт Де Ниро / Robert De Niro

В ролях: Роберт Де Ниро, Чазз Пальминтери, Лилло Бранкато, Фрэнсис Капра, Тэрал Хикс, Кэтрин Нардуччи, Клем Касерта, Альфред Саукелли мл., Фрэнк Пьетранголаре, Джо Пеши
Описание: Король бронкской мафии Сонни убил человека. Просто так. Из-за места на парковке. Среди бела дня вытащил пистолет и несколько раз выстрелил. Полиция узнала, что свидетелем преступления был 9-летний Колоджеро, и допросила мальчика. Но Калоджеро не выдавал Сонни. И попал в любимчики мафиози. Что сильно не понравилось водителю автобуса, отцу мальчика.С этого дня началось сотрудничество Сонни и Калоджеро, и, когда мальчик вырос, он не просто стал свидетелем других кровавых деяний своего босса, но и сам оказался на краю пропасти…


Качество видео: HDRip
Формат видео: AVI
Видео кодек: XviD
Аудио кодек: AC3
Видео: 720x400, XviD, 23.976 fps, ~1884 kbps, 0.27 bit/pixel
Аудио:
Аудио #1: Dolby AC3 / 2.0 / 48 kHz / 256 kbps ( Ю.Живов )
Аудио #2: Dolby AC3 / 2.0 / 48 kHz / 192 kbps ( Л.Володарский )
Аудио #3: Dolby AC3 / 2.0 / 48 kHz / 192 kbps ( С.Визгунов )
Аудио #4: Dolby AC3 / 2.0 / 48 kHz / 256 kbps ( оригинал )
Видео
Идентификатор : 0
Формат : MPEG-4 Visual
Профиль формата : Advanced Simple@L5
Параметр BVOP формата : 2
Параметр QPel формата : Нет
Параметр GMC формата : Без точки перехода
Параметр матрицы формата : Выборочная
Идентификатор кодека : XVID
Идентификатор кодека/Подсказка : XviD
Продолжительность : 2 ч. 1 м.
Битрейт : 1884 Кбит/сек
Ширина : 720 пикселей
Высота : 400 пикселей
Соотношение сторон : 16:9
Частота кадров : 23,976 кадра/сек
Цветовое пространство : YUV
Субдискретизация насыщенности : 4:2:0
Битовая глубина : 8 бит
Тип развёртки : Прогрессивная
Метод сжатия : С потерями
Бит/(Пиксели*Кадры) : 0.273
Размер потока : 1,60 Гбайт (67%)
Библиотека кодирования : XviD 73

Аудио #1
Идентификатор : 1
Формат : AC-3
Формат/Информация : Audio Coding 3
Расширение режима : CM (complete main)
Идентификатор кодека : 2000
Продолжительность : 2 ч. 1 м.
Вид битрейта : Постоянный
Битрейт : 256 Кбит/сек
Каналы : 2 канала
Расположение каналов : Front: L R
Частота : 48,0 КГц
Битовая глубина : 16 бит
Метод сжатия : С потерями
Размер потока : 223 Мбайт (9%)
Выравнивание : Разделение по промежуткам
Продолжительность промежутка : 42 мс. (1,00 видеокадр)
Время предзагрузки промежутка : 500 мс.
Заголовок : AVO ( Ю.Живов )

Аудио #2
Идентификатор : 2
Формат : AC-3
Формат/Информация : Audio Coding 3
Расширение режима : CM (complete main)
Идентификатор кодека : 2000
Продолжительность : 2 ч. 1 м.
Вид битрейта : Постоянный
Битрейт : 192 Кбит/сек
Каналы : 2 канала
Расположение каналов : Front: L R
Частота : 48,0 КГц
Битовая глубина : 16 бит
Метод сжатия : С потерями
Размер потока : 167 Мбайт (7%)
Выравнивание : Разделение по промежуткам
Продолжительность промежутка : 42 мс. (1,00 видеокадр)
Время предзагрузки промежутка : 500 мс.
Заголовок : AVO ( Л.Володарский )

Аудио #3
Идентификатор : 3
Формат : AC-3
Формат/Информация : Audio Coding 3
Расширение режима : CM (complete main)
Идентификатор кодека : 2000
Продолжительность : 2 ч. 1 м.
Вид битрейта : Постоянный
Битрейт : 192 Кбит/сек
Каналы : 2 канала
Расположение каналов : Front: L R
Частота : 48,0 КГц
Битовая глубина : 16 бит
Метод сжатия : С потерями
Размер потока : 167 Мбайт (7%)
Выравнивание : Разделение по промежуткам
Продолжительность промежутка : 42 мс. (1,00 видеокадр)
Время предзагрузки промежутка : 500 мс.
Заголовок : AVO ( С.Визгунов )

Аудио #4
Идентификатор : 4
Формат : AC-3
Формат/Информация : Audio Coding 3
Расширение режима : CM (complete main)
Идентификатор кодека : 2000
Продолжительность : 2 ч. 1 м.
Вид битрейта : Постоянный
Битрейт : 256 Кбит/сек
Каналы : 2 канала
Расположение каналов : Front: L R
Частота : 48,0 КГц
Битовая глубина : 16 бит
Метод сжатия : С потерями
Размер потока : 223 Мбайт (9%)
Выравнивание : Разделение по промежуткам
Продолжительность промежутка : 42 мс. (1,00 видеокадр)
Время предзагрузки промежутка : 500 мс.
Заголовок : Оригинал



Скачать Бронкская.история.A.Bronx.Tale.(Роберт.Де.Ниро.Robert.De.Niro).[1993.драма.криминал.HDRip].3x[AVO].(.Ю.Живов.Л.Володарский.С.Визгунов.).torrent без регистрации
Золото ЗОЛОТАЯ РАЗДАЧА! СКАЧАННОЕ НЕ ЗАСЧИТЫВАЕТСЯ! Золото
Дата: Зарегистрирован   [ Тип: внутренний ] Как тут cкачать?
MAGNET ссылка
MAGNET ссылка


Скачать .torrent

12 KB

Статус: проверено DHT
Скачан: торрент - 115 раз, раздача полностью - 8 раз
Размер: 2,38 GB
Оценка:  - (Голосов: 0)
Поблагодарили: 1
Поделиться ссылкой на эту раздачу с друзьями:
В контактеFacebookОдноклассникиTwitterLivejournalМой МирLiveinternet
 

 
Показать сообщения:    


Вы не можете начинать темы
Вы не можете отвечать на сообщения
Вы не можете редактировать свои сообщения
Вы не можете удалять свои сообщения
Вы не можете голосовать в опросах
Вы не можете прикреплять файлы к сообщениям
Вы можете скачивать файлы