Loading...
Error

Скачать Нужные вещи / Needful Things (Фрэйзер С. Хестон) [1993, мистика, ужасы, HDRip] [AVO] (А.Гаврилов) торрент без регистрации

 
Статистика раздачи
Размер:  1,7 GB   |    Скачан:  105 раз

Полного источника не было: 24 минуты

 
Автор Сообщение

leon030982

[] 

Нужные вещи / Needful Things


Год выхода: 1993
Жанр: мистика, ужасы
Страна: США
Студия: Castle Rock Entertainment
Продолжительность: 02:00:56
Перевод: Авторский (одноголосный) [А.Гаврилов]

Режиссер: Фрэйзер С. Хестон

В ролях: Эд Харрис, Макс фон Сюдов, Бонни Беделиа, Дж. Т. Уолш, Аманда Пламмер, Рэй МакКиннон


Экранизация романа Стивена Кинга с великолепными спецэффектами. В тихом городке Касл Рок открывается необычайный магазин «Нужные вещи», где можно за полцены купить все, что душе угодно. За вторую половину цены хозяин требует, чтобы покупатель устроил какую-нибудь пакость ближнему своему. В результате городок превращается в преисподнюю. Убийства, драки, взрывы, сведения счетов сам дьявол манипулирует здешними обывателями. Если бы не шериф единственный человек в Касл Рок, который ничего не захотел купить в этом проклятом магазине, все население городка переселилось бы прямо в ад. Но шериф оказывается человеком, которому от дьявола ничего не нужно.



Качество: HDRip
Формат: AVI
Видео кодек: XviD
Аудио кодек: AC3
Видео: Xvid, 704x400, 23.976 fps, ~1807 kbps, 0.27 bit/pixel
Аудио: AC3 2.0, 192 Кбит/сек - [Авторский одноголосый А.Гаврилов]
Видео
Идентификатор : 0
Формат : MPEG-4 Visual
Профиль формата : Advanced Simple@L5
Параметр BVOP формата : 1
Параметр QPel формата : Нет
Параметр GMC формата : Без точки перехода
Параметр матрицы формата : Выборочная
Идентификатор кодека : XVID
Идентификатор кодека/Подсказка : XviD
Продолжительность : 2 ч. 0 м.
Битрейт : 1807 Кбит/сек
Ширина : 704 пикселя
Высота : 400 пикселей
Соотношение сторон : 16:9
Частота кадров : 23,976 кадра/сек
Цветовое пространство : YUV
Субдискретизация насыщенности : 4:2:0
Битовая глубина : 8 бит
Тип развёртки : Прогрессивная
Метод сжатия : С потерями
Бит/(Пиксели*Кадры) : 0.268
Размер потока : 1,53 Гбайт (90%)
Библиотека кодирования : XviD 73

Аудио
Идентификатор : 1
Формат : AC-3
Формат/Информация : Audio Coding 3
Расширение режима : CM (complete main)
Идентификатор кодека : 2000
Продолжительность : 2 ч. 0 м.
Вид битрейта : Постоянный
Битрейт : 192 Кбит/сек
Каналы : 2 канала
Расположение каналов : Front: L R
Частота : 48,0 КГц
Битовая глубина : 16 бит
Метод сжатия : С потерями
Размер потока : 165 Мбайт (10%)
Выравнивание : Разделение по промежуткам
Продолжительность промежутка : 42 мс. (1,01 видеокадр)
Заголовок : AVO ( А.Гаврилов )



Скачать Нужные.вещи.Needful.Things.(Фрэйзер.С.Хестон).[1993.мистика.ужасы.HDRip].[AVO].(А.Гаврилов).torrent без регистрации
Золото ЗОЛОТАЯ РАЗДАЧА! СКАЧАННОЕ НЕ ЗАСЧИТЫВАЕТСЯ! Золото
Дата: Зарегистрирован   [ Тип: внутренний ] Как тут cкачать?
MAGNET ссылка
MAGNET ссылка


Скачать .torrent

17 KB

Статус: проверено DHT
Скачан: торрент - 105 раз, раздача полностью - 12 раз
Размер: 1,7 GB
Оценка:  5 (Голосов: 1)
Поблагодарили: 2
Поделиться ссылкой на эту раздачу с друзьями:
В контактеFacebookОдноклассникиTwitterLivejournalМой МирLiveinternet
 

 
Показать сообщения:    


Вы не можете начинать темы
Вы не можете отвечать на сообщения
Вы не можете редактировать свои сообщения
Вы не можете удалять свои сообщения
Вы не можете голосовать в опросах
Вы не можете прикреплять файлы к сообщениям
Вы можете скачивать файлы