Loading...
Error

Скачать Сошедшие с небес / Рухнувшие небеса / Falling Skies (сезон 03) (Грег Биман, Холли Дэйл, Серджо Мимика-Геззан) [2013, фантастика, боевик, триллер, WEB-DLRip] [720p] [MVO (LostFilm)] торрент без регистрации

 
Статистика раздачи
Размер:  14,23 GB   |    Скачан:  171 раз
Сидов:  1  [  0 KB/s  ]  
 
Автор Сообщение

МихаНЕзатор

[] 

Информация о фильме
Название: Сошедшие с небес / Рухнувшие небеса
Оригинальное название: Falling Skies
Год выхода: 2013
Жанр: Фантастика, боевик
Режиссер: Грег Биман, Холли Дэйл, Серджо Мимика-Геззан
В ролях: Ноа Уайли, Максим Найт, Сейшелл Гэбриел, Терри ОКуинн, Коннор Джессуп, Питер Шинкода, Дрю Рой, Мун Бладгуд, Уилл Пэттон, Сара Картер, Колин Каннингэм и др.

О фильме:
В результате инопланетного вторжения на Землю один из сыновей профессора истории Тома Мэйсона попадает в плен, а его жена гибнет. Она оказалась одной из миллионов людей, погибших от рук пришельцев. Люди, которым посчастливилось остаться в живых, вступают в партизанские отряды, объединяются для оказания сопротивления захватчикам.
Землю атакуют два вида инопланетян прямоходящие, прекрасно вооруженные роботы Mechs и насекомоподобные Skitters. Людям приходится несладко, а борьба с незваными гостями становится все сложнее из-за того, что последние используют современное оборудование, с помощью которого можно легко определить местонахождение больших групп людей. Именно поэтому остается одна надежда на партизан, которые боролись с противником небольшими группами. Немалых усилий, а часто и человеческих жизней стоит выявление слабых сторон захватчиков.



Страна: США, Канада
Студия: DreamWorks Television, Invasion Productions
Продолжительность: ~ 00:42:00
Перевод: Профессиональный (многоголосый, закадровый) LostFilm

Файл
Кодек: x264
Качество: WEB-DL 720p
Видео: MPEG-4 AVC, ~ 4000 Кбит/с, 1280x720
Звук: Русский, английский (AC3, 6 ch, 384 Кбит/с)
Субтитры: Русские, английские

Релиз от: hdtracker by CEZAR
Работа со звуком: CEZAR
Released by CEZAR

Русские субтитры: есть (Notabenoid)

08.08.2013 г. торент обновлён, добавлена 10 серия!

General
Unique ID : 212008675082683790391039144880386957866 (0x9F7F62B5726A316697A012C6F8B9622A)
Complete name : Falling.Skies.S03.720p.WEB-DL.DD5.1.H264-CEZARFalling.Skies.S03E01.720p.WEB-DL.DD5.1.H264-CEZAR.mkv
Format : Matroska
Format version : Version 4 / Version 2
File size : 1.43 GiB
Duration : 42mn 7s
Overall bit rate : 4 861 Kbps
Encoded date : UTC 2013-06-16 21:57:51
Writing application : mkvmerge v6.1.0 ('Old Devil') built on Mar 2 2013 14:32:37
Writing library : libebml v1.3.0 + libmatroska v1.4.0

Video
ID : 1
Format : AVC
Format/Info : Advanced Video Codec
Format profile : High@L3.1
Format settings, CABAC : No
Format settings, ReFrames : 2 frames
Codec ID : V_MPEG4/ISO/AVC
Duration : 42mn 7s
Bit rate : 3 996 Kbps
Width : 1 280 pixels
Height : 720 pixels
Display aspect ratio : 16:9
Frame rate mode : Constant
Frame rate : 23.976 fps
Color space : YUV
Chroma subsampling : 4:2:0
Bit depth : 8 bits
Scan type : Progressive
Bits/(Pixel*Frame) : 0.181
Stream size : 1.18 GiB (82%)
Default : Yes
Forced : No
Color primaries : BT.709
Transfer characteristics : BT.709
Matrix coefficients : BT.709

Audio #1
ID : 2
Format : AC-3
Format/Info : Audio Coding 3
Mode extension : CM (complete main)
Format settings, Endianness : Big
Codec ID : A_AC3
Duration : 42mn 7s
Bit rate mode : Constant
Bit rate : 384 Kbps
Channel(s) : 6 channels
Channel positions : Front: L C R, Side: L R, LFE
Sampling rate : 48.0 KHz
Bit depth : 16 bits
Compression mode : Lossy
Stream size : 116 MiB (8%)
Title : Lstfilm
Language : Russian
Default : Yes
Forced : No

Audio #2
ID : 3
Format : AC-3
Format/Info : Audio Coding 3
Mode extension : CM (complete main)
Format settings, Endianness : Big
Codec ID : A_AC3
Duration : 42mn 7s
Bit rate mode : Constant
Bit rate : 384 Kbps
Channel(s) : 6 channels
Channel positions : Front: L C R, Side: L R, LFE
Sampling rate : 48.0 KHz
Bit depth : 16 bits
Compression mode : Lossy
Stream size : 116 MiB (8%)
Language : English
Default : No
Forced : No

Text #1
ID : 4
Format : UTF-8
Codec ID : S_TEXT/UTF8
Codec ID/Info : UTF-8 Plain Text
Language : Russian
Default : No
Forced : No

Text #2
ID : 5
Format : UTF-8
Codec ID : S_TEXT/UTF8
Codec ID/Info : UTF-8 Plain Text
Language : English
Default : No
Forced : No

Menu
00:00:00.000 : en:Chapter 1
00:04:03.854 : en:Chapter 2
00:06:57.835 : en:Chapter 3
00:16:25.365 : en:Chapter 4
00:23:22.944 : en:Chapter 5
00:29:41.344 : en:Chapter 6
00:35:42.123 : en:Chapter 7
00:41:35.195 : en:Chapter 8



Скачать Сошедшие.с.небес.Рухнувшие.небеса.Falling.Skies.(сезон.03).(Грег.Биман.Холли.Дэйл.Серджо.Мимика-Геззан).[2013.фантастика.боевик.триллер.WEB-DLRip].[720p].[MVO.(LostFilm)].torrent без регистрации
Золото ЗОЛОТАЯ РАЗДАЧА! СКАЧАННОЕ НЕ ЗАСЧИТЫВАЕТСЯ! Золото
Дата: Зарегистрирован   [ Тип: внутренний ] Как тут cкачать?
MAGNET ссылка
MAGNET ссылка


Скачать .torrent

37 KB

Статус: проверено DHT
Скачан: торрент - 171 раз, раздача полностью - 27 раз
Размер: 14,23 GB
Оценка:  5 (Голосов: 2)
Поблагодарили: 4
Поделиться ссылкой на эту раздачу с друзьями:
В контактеFacebookОдноклассникиTwitterLivejournalМой МирLiveinternet
 

 

МихаНЕзатор

[] 

Раздача обновлена.
 
Показать сообщения:    


Вы не можете начинать темы
Вы не можете отвечать на сообщения
Вы не можете редактировать свои сообщения
Вы не можете удалять свои сообщения
Вы не можете голосовать в опросах
Вы не можете прикреплять файлы к сообщениям
Вы можете скачивать файлы