Loading...
Error

Скачать Безумие / The Wackness (Джонатан Ливайн) [2008, драма, мелодрама, комедия, BDRip-AVC] [MVO] [Лицензия]+[Sub] торрент без регистрации

 
Статистика раздачи
Размер:  2,19 GB   |    Скачан:  98 раз
Сидов:  1  [  0 KB/s  ]  
 
Автор Сообщение

Marsianka

[] 

Год выпуска: 2008
Производство: США, Великобритания / Occupant Films, SBK Pictures
Жанр: драма, мелодрама, комедия
Продолжительность: 01:38:45
Перевод: Профессиональный (многоголосый закадровый) лицензия
Субтитры: Английские, русские
Навигация по главам: Есть
Режиссер: Джонатан Ливайн / Jonathan Levine

В ролях: Бен Кингсли, Джош Пек, Фамке Янссен, Оливия Тирлби, Мэри-Кейт Олсен, Джейн Адамс, Метод Мэн, Аарон Йу, Талия Балсам Дэвид Уол

О фильме:
Лето 1994 улицы Нью-Йорка пульсируют от хип-хопа и облака марихуаны двигаются своим путем Нововыбранный мэр Рудольф Гулиани только начинает принимать меры против таких преступлений как громкое радио, рисунки на стенах и пьянство. Безумие показывает нам Люка Шапиро, студента и наркодилера, который подружился с доктором Джефри Сквиресом, психиатром и просто родственной душой. Когда доктор предложил Люку продать ему наркотик для сеансов терапии оба начинают исследовать глубины Нью-Йорка и своей депрессии.
Бюджет: $6 000 000

Качество: BDRip-AVC [Blu-Ray Remux]
Формат: MKV
Видео: H.264, 1120x476 (2,35:1), 23,976 fps, 2531 Кbps, 0.198 bit/pixel
Аудио#1: 48 kHz, AC3 Dolby Digital, 2/0 (L,C) ch, 192.00 kbps | RUS
Аудио#2: 48 kHz, AC3 Dolby Digital, 3/2 (L,C,R,l,r) + LFE ch, 448.00 kbps | ENG

Автор рипа:
Общее
Уникальный идентификатор : 212684003052135852288427175690582746152 (0xA00172F2C79FBDECB8F7621201DDE428)
Полное имя : Bezumije.2008.P.BDRip.x264.potroks.mkv
Формат : Matroska
Версия формата : Version 2
Размер файла : 2,19 Гбайт
Продолжительность : 1 ч. 38 м.
Общий поток : 3168 Кбит/сек
Название фильма : -=POTROKS=-
Дата кодирования : UTC 2013-06-21 13:32:47
Программа кодирования : mkvmerge v5.9.0 ('On The Loose') built on Dec 15 2012 16:39:58
Библиотека кодирования : libebml v1.3.0 + libmatroska v1.4.0

Видео
Идентификатор : 1
Формат : AVC
Формат/Информация : Advanced Video Codec
Профиль формата : High@L4.1
Параметр CABAC формата : Да
Параметр ReFrames формата : 11 кадров
Идентификатор кодека : V_MPEG4/ISO/AVC
Продолжительность : 1 ч. 38 м.
Битрейт : 2531 Кбит/сек
Ширина : 1120 пикселей
Высота : 476 пикселей
Соотношение сторон : 2,35:1
Режим частоты кадров : Постоянный
Частота кадров : 23,976 кадра/сек
Цветовое пространство : YUV
Субдискретизация насыщенности : 4:2:0
Битовая глубина : 8 бит
Тип развёртки : Прогрессивная
Бит/(Пиксели*Кадры) : 0.198
Размер потока : 1,70 Гбайт (78%)
Заголовок : The Wackness
Библиотека кодирования : x264 core 125 r2208 d9d2288
Настройки программы : cabac=1 / ref=11 / deblock=1:-3:-2 / analyse=0x3:0x133 / me=umh / subme=11 / psy=1 / psy_rd=0.99:0.00 / mixed_ref=1 / me_range=32 / chroma_me=1 / trellis=2 / 8x8dct=1 / cqm=0 / deadzone=21,11 / fast_pskip=0 / chroma_qp_offset=-2 / threads=9 / lookahead_threads=1 / sliced_threads=0 / nr=0 / decimate=1 / interlaced=0 / bluray_compat=0 / constrained_intra=0 / bframes=12 / b_pyramid=2 / b_adapt=2 / b_bias=0 / direct=3 / weightb=1 / open_gop=0 / weightp=2 / keyint=240 / keyint_min=23 / scenecut=40 / intra_refresh=0 / rc_lookahead=100 / rc=2pass / mbtree=1 / bitrate=2531 / ratetol=1.0 / qcomp=0.70 / qpmin=0 / qpmax=69 / qpstep=4 / cplxblur=20.0 / qblur=0.5 / vbv_maxrate=50000 / vbv_bufsize=62500 / nal_hrd=none / ip_ratio=1.35 / aq=1:0.80
Язык : English
Default : Да
Forced : Нет

Аудио #1
Идентификатор : 2
Формат : AC-3
Формат/Информация : Audio Coding 3
Расширение режима : CM (complete main)
Параметр Endianness формата : Big
Идентификатор кодека : A_AC3
Продолжительность : 1 ч. 38 м.
Вид битрейта : Постоянный
Битрейт : 192 Кбит/сек
Каналы : 2 канала
Расположение каналов : Front: L R
Частота : 48,0 КГц
Битовая глубина : 16 бит
Метод сжатия : С потерями
Размер потока : 136 Мбайт (6%)
Заголовок : DVO | DD 2.0 @ 192 kbps - R5
Язык : Russian
Default : Да
Forced : Да

Аудио #2
Идентификатор : 3
Формат : AC-3
Формат/Информация : Audio Coding 3
Расширение режима : CM (complete main)
Параметр Endianness формата : Big
Идентификатор кодека : A_AC3
Продолжительность : 1 ч. 38 м.
Вид битрейта : Постоянный
Битрейт : 448 Кбит/сек
Каналы : 6 каналов
Расположение каналов : Front: L C R, Side: L R, LFE
Частота : 48,0 КГц
Битовая глубина : 16 бит
Метод сжатия : С потерями
Размер потока : 316 Мбайт (14%)
Заголовок : Original | DD 5.1 @ 448 kbps
Язык : English
Default : Нет
Forced : Нет

Текст #1
Идентификатор : 4
Формат : UTF-8
Идентификатор кодека : S_TEXT/UTF8
Идентификатор кодека/Информация : UTF-8 Plain Text
Заголовок : Palina
Язык : Russian
Default : Нет
Forced : Нет

Текст #2
Идентификатор : 5
Формат : UTF-8
Идентификатор кодека : S_TEXT/UTF8
Идентификатор кодека/Информация : UTF-8 Plain Text
Язык : English
Default : Нет
Forced : Нет

Меню
00:00:00.000 : :Chapter 01
00:06:49.033 : :Chapter 02
00:09:51.549 : :Chapter 03
00:16:24.775 : :Chapter 04
00:21:54.146 : :Chapter 05
00:24:29.092 : :Chapter 06
00:28:34.629 : :Chapter 07
00:33:34.220 : :Chapter 08
00:38:28.973 : :Chapter 09
00:46:56.188 : :Chapter 10
00:53:46.723 : :Chapter 11
01:00:48.144 : :Chapter 12
01:08:25.976 : :Chapter 13
01:20:53.765 : :Chapter 14
01:30:02.647 : :Chapter 15
01:34:48.557 : :Chapter 16



Скачать Безумие.The.Wackness.(Джонатан.Ливайн).[2008.драма.мелодрама.комедия.BDRip-AVC].[MVO].[Лицензия]+[Sub].torrent без регистрации
Золото ЗОЛОТАЯ РАЗДАЧА! СКАЧАННОЕ НЕ ЗАСЧИТЫВАЕТСЯ! Золото
Дата: Зарегистрирован   [ Тип: внутренний ] Как тут cкачать?
MAGNET ссылка
MAGNET ссылка


Скачать .torrent

11 KB

Статус: проверено DHT
Скачан: торрент - 98 раз, раздача полностью - 17 раз
Размер: 2,19 GB
Оценка:  - (Голосов: 0)
Поблагодарили: 0
Поделиться ссылкой на эту раздачу с друзьями:
В контактеFacebookОдноклассникиTwitterLivejournalМой МирLiveinternet
 

 
Показать сообщения:    


Вы не можете начинать темы
Вы не можете отвечать на сообщения
Вы не можете редактировать свои сообщения
Вы не можете удалять свои сообщения
Вы не можете голосовать в опросах
Вы не можете прикреплять файлы к сообщениям
Вы можете скачивать файлы