Loading...
Error

Скачать Хорошая работа / Beau travail (Клер Дени) [1999, драма, DVDRip-AVC] [DVO]+[Sub] торрент без регистрации

 
Статистика раздачи
Размер:  1,8 GB   |    Скачан:  107 раз
Сидов:  1  [  0 KB/s  ]  
 
Автор Сообщение

Marsianka

[] 

Информация о фильме
Название: Хорошая работа
Оригинальное название: Beau travail
Год выхода: 1999
Жанр: драма
Режиссер: Клер Дени / Claire Denis
В ролях: Дени Лаван (Galoup), Мишель Сюбор (Commander Bruno Forestier), Грегуар Колен (Gilles Sentain), Richard Courcet (Legionnaire), Николя Дювошель (Legionnaire), Adiatou Massudi (Legionnaire), Mickael Ravovski (Legionnaire), Дэн Херцберг (Legionnaire), Джузеппе Молино (Legionnaire), Жанфранко Поддиге (Legionnaire), Marc Veh (Legionnaire), Thong Duy Nguyen (Legionnaire)

О фильме:
Марсель. Экс-адъютант Галу вспоминает своих подчиненных, события, происходившие в Джибути, на берегу Персидского залива. Он вспоминает своего командира, Брюно Форестье, и новобранца Жиля Сантена, который его интригует и восхищает одновременно.Он вспоминает воинские упражнения, совместные трапезы, увольнения в город, гарнизон Иностранного Легиона, затерянный между морем, небом и землей, и ужасную историю, которая стоила ему карьеры...



Страна: Франция
Продолжительность: 01:28:56
Перевод: Профессиональный (двухголосый, закадровый) НТВ+

Файл
Кодек: h.264
Качество: DVDRip-AVC
Видео: 656x576 (1.628) @ 938x576 (анаморф), 25.000 fps, AVC, ~2547 Kbps, 0.270 bits/pixel
Звук:
1) Французский, 48.0 KHz, AC3, 2 ch, 224 Kbps
2) Русский, 48.0 KHz, AC3, 1 ch, 128 Kbps
Субтитры: Английский, VobSub
Исходник от TDiTP_= R2 Artificial Eye + русский перевод (Спасибо!). Фоновые звуки в русской дорожке "прибиты", к сожалению, но другого варианта нет.
Общее
Уникальный идентификатор : 229416478246242261090048617776858888336 (0xAC9801AB3B2D0592BF51879DBBB97890)
Полное имя : D:FilmsHoroshaya_Rabota.1999.DVDRip-AVC.mkv
Формат : Matroska
Версия формата : Version 4 / Version 2
Размер файла : 1,80 Гбайт
Продолжительность : 1 ч. 28 м.
Общий поток : 2902 Кбит/сек
Дата кодирования : UTC 2013-06-16 21:34:45
Программа кодирования : mkvmerge v6.2.0 ('Promised Land') built on Apr 28 2013 12:22:01
Библиотека кодирования : libebml v1.3.0 + libmatroska v1.4.0

Видео
Идентификатор : 1
Формат : AVC
Формат/Информация : Advanced Video Codec
Профиль формата : High@L4.1
Параметр CABAC формата : Да
Параметр ReFrames формата : 16 кадров
Идентификатор кодека : V_MPEG4/ISO/AVC
Продолжительность : 1 ч. 28 м.
Битрейт : 2547 Кбит/сек
Ширина : 656 пикселей
Высота : 576 пикселей
Соотношение сторон : 16:10
Соотношение сторон в оригинале : 16:10
Режим частоты кадров : Постоянный
Частота кадров : 25,000 кадров/сек
Цветовое пространство : YUV
Субдискретизация насыщенности : 4:2:0
Битовая глубина : 8 бит
Тип развёртки : Прогрессивная
Бит/(Пиксели*Кадры) : 0.270
Размер потока : 1,55 Гбайт (86%)
Библиотека кодирования : x264 core 133 r2334 a3ac64b
Настройки программы : cabac=1 / ref=16 / deblock=1:0:0 / analyse=0x3:0x133 / me=umh / subme=10 / psy=1 / psy_rd=1.05:0.10 / mixed_ref=1 / me_range=32 / chroma_me=1 / trellis=2 / 8x8dct=1 / cqm=0 / deadzone=21,11 / fast_pskip=0 / chroma_qp_offset=-3 / threads=8 / lookahead_threads=2 / sliced_threads=0 / nr=0 / decimate=0 / interlaced=0 / bluray_compat=0 / constrained_intra=0 / bframes=11 / b_pyramid=2 / b_adapt=2 / b_bias=0 / direct=3 / weightb=1 / open_gop=0 / weightp=2 / keyint=250 / keyint_min=25 / scenecut=40 / intra_refresh=0 / rc_lookahead=60 / rc=2pass / mbtree=0 / bitrate=2547 / ratetol=1.0 / qcomp=0.60 / qpmin=0 / qpmax=60 / qpstep=4 / cplxblur=20.0 / qblur=0.5 / vbv_maxrate=50000 / vbv_bufsize=62500 / nal_hrd=none / ip_ratio=1.40 / pb_ratio=1.30 / aq=1:1.00
Default : Нет
Forced : Нет
Коэффициенты матрицы : BT.601

Аудио #1
Идентификатор : 2
Формат : AC-3
Формат/Информация : Audio Coding 3
Расширение режима : CM (complete main)
Параметр Endianness формата : Big
Идентификатор кодека : A_AC3
Продолжительность : 1 ч. 28 м.
Вид битрейта : Постоянный
Битрейт : 224 Кбит/сек
Каналы : 2 канала
Расположение каналов : Front: L R
Частота : 48,0 КГц
Битовая глубина : 16 бит
Метод сжатия : С потерями
Размер потока : 142 Мбайт (8%)
Язык : French
Default : Нет
Forced : Нет

Аудио #2
Идентификатор : 3
Формат : AC-3
Формат/Информация : Audio Coding 3
Расширение режима : CM (complete main)
Параметр Endianness формата : Big
Идентификатор кодека : A_AC3
Продолжительность : 1 ч. 28 м.
Вид битрейта : Постоянный
Битрейт : 128 Кбит/сек
Каналы : 1 канал
Расположение каналов : Front: C
Частота : 48,0 КГц
Битовая глубина : 16 бит
Метод сжатия : С потерями
Размер потока : 81,4 Мбайт (4%)
Язык : Russian
Default : Да
Forced : Нет

Текст
Идентификатор : 4
Формат : VobSub
Режим смешивания : zlib
Идентификатор кодека : S_VOBSUB
Идентификатор кодека/Информация : The same subtitle format used on DVDs
Язык : English
Default : Нет
Forced : Нет

Меню
00:00:00.000 : en:Chapter 01
00:02:50.160 : en:Chapter 02
00:09:09.000 : en:Chapter 03
00:14:49.680 : en:Chapter 04
00:19:05.760 : en:Chapter 05
00:24:24.600 : en:Chapter 06
00:28:37.680 : en:Chapter 07
00:34:41.160 : en:Chapter 08
00:41:34.680 : en:Chapter 09
00:46:08.520 : en:Chapter 10
00:52:48.840 : en:Chapter 11
00:58:04.920 : en:Chapter 12
01:02:32.040 : en:Chapter 13
01:06:49.200 : en:Chapter 14
01:11:03.600 : en:Chapter 15
01:19:35.040 : en:Chapter 16
01:25:03.840 : en:Chapter 17
frame I:658 Avg QP:15.20 size: 58887
frame P:32353 Avg QP:17.92 size: 24472
frame B:100377 Avg QP:19.61 size: 8650
Релиз от: Temperest



Скачать Хорошая.работа.Beau.travail.(Клер.Дени).[1999.драма.DVDRip-AVC].[DVO]+[Sub].torrent без регистрации
Золото ЗОЛОТАЯ РАЗДАЧА! СКАЧАННОЕ НЕ ЗАСЧИТЫВАЕТСЯ! Золото
Дата: Зарегистрирован   [ Тип: внутренний ] Как тут cкачать?
MAGNET ссылка
MAGNET ссылка


Скачать .torrent

19 KB

Статус: проверено DHT
Скачан: торрент - 107 раз, раздача полностью - 1 раз
Размер: 1,8 GB
Оценка:  - (Голосов: 0)
Поблагодарили: 1
Поделиться ссылкой на эту раздачу с друзьями:
В контактеFacebookОдноклассникиTwitterLivejournalМой МирLiveinternet
 

 
Показать сообщения:    


Вы не можете начинать темы
Вы не можете отвечать на сообщения
Вы не можете редактировать свои сообщения
Вы не можете удалять свои сообщения
Вы не можете голосовать в опросах
Вы не можете прикреплять файлы к сообщениям
Вы можете скачивать файлы