Loading...
Error

Скачать Большое разочарование / The Big Chill (Лоуренс Каздан) [1983, драма, комедия, DVDRip-AVC] [MVO]+[VO]+[Sub] торрент без регистрации

 
Статистика раздачи
Размер:  1,96 GB   |    Скачан:  100 раз
Сидов:  1  [  0 KB/s  ]  
 
Автор Сообщение

Marsianka

[] 

Информация о фильме
Название: Большое разочарование
Оригинальное название: The Big Chill
Год выхода: 1983
Жанр: драма, комедия
Режиссер: Лоуренс Каздан / Lawrence Kasdan
В ролях: Гленн Клоуз / Glenn Close /, Том Беренджер / Tom Berenger /, Уильям Херт / William Hurt /, Джефф Голдблюм / Jeff Goldblum /, Мэри Кей Плэйс / Mary Kay Place /, Кевин Клайн / Kevin Kline /, Мег Тилли / Meg Tilly /, Дон Гэллоуэй / Don Galloway /, ДжоБет Уильямс / JoBeth Williams /, Джеймс Джиллис / James Gillis /

О фильме:
Почему холодно? На похоронах своего товарища старые друзья, пути которых разошлись, ведут умные разговоры, пытаясь казаться сложными, глубокими натурами, делятся воспоминаниями о 60-х годах. По крайней мере режиссер Кэздан из кожи вон лезет, чтобы придать всему этому глубокомысленность, а на самом деле вспомнить нечего - посмотрел фильм и забыл, о чем он. Музыка хорошая, актеры играют профессионально, но сюжета нет, пусто. Обратите внимание на Кевина Костнера в роли трупа, роль маленькая, под титры. Номинации на "Оскар" за лучшую картину, лучшую актрису второго плана (Клоуз), оригинальный сценарий (Кэздан и Бенедек). (Иванов М.)



Страна: США
Студия: Columbia Pictures Corporation, Carson Productions
Продолжительность: 01:40:51
Перевод: Профессиональный (многоголосый закадровый) СТС + Любительский (одноголосый закадровый) lehachuev

Файл
Кодек: h.264
Качество: DVDRip-AVC
Видео: 688x544 (16:9) @ 984x544 (анаморф), 25.000 fps, AVC, ~2197 Kbps, 0.235 bits/pixel
1) Английский, 48.0 KHz, AC3, 2 ch, 192 Kbps
2) Русский, 48.0 KHz, AC3, 2 ch, 192 Kbps (СТС)
3) Русский, 48.0 KHz, AC3, 2 ch, 192 Kbps (lehachuev)
Субтитры: Английские, VobSub
Общее
Уникальный идентификатор : 211473133886815964537678307482025379829 (0x9F183E7D3EFCDD22938A96AFD4E0C7F5)
Полное имя : D:FilmsBolshoe_Razocharovanie.1983.DVDRip-AVC.mkv
Формат : Matroska
Версия формата : Version 4 / Version 2
Размер файла : 1,96 Гбайт
Продолжительность : 1 ч. 40 м.
Общий поток : 2778 Кбит/сек
Дата кодирования : UTC 2013-06-21 16:41:08
Программа кодирования : mkvmerge v6.2.0 ('Promised Land') built on Apr 28 2013 12:22:01
Библиотека кодирования : libebml v1.3.0 + libmatroska v1.4.0

Видео
Идентификатор : 1
Формат : AVC
Формат/Информация : Advanced Video Codec
Профиль формата : High@L4.1
Параметр CABAC формата : Да
Параметр ReFrames формата : 16 кадров
Идентификатор кодека : V_MPEG4/ISO/AVC
Продолжительность : 1 ч. 40 м.
Битрейт : 2197 Кбит/сек
Ширина : 688 пикселей
Высота : 544 пикселя
Соотношение сторон : 16:9
Режим частоты кадров : Постоянный
Частота кадров : 25,000 кадров/сек
Цветовое пространство : YUV
Субдискретизация насыщенности : 4:2:0
Битовая глубина : 8 бит
Тип развёртки : Прогрессивная
Бит/(Пиксели*Кадры) : 0.235
Размер потока : 1,51 Гбайт (77%)
Библиотека кодирования : x264 core 133 r2334 a3ac64b
Настройки программы : cabac=1 / ref=16 / deblock=1:0:0 / analyse=0x3:0x133 / me=umh / subme=10 / psy=1 / psy_rd=1.05:0.10 / mixed_ref=1 / me_range=32 / chroma_me=1 / trellis=2 / 8x8dct=1 / cqm=0 / deadzone=21,11 / fast_pskip=0 / chroma_qp_offset=-3 / threads=8 / lookahead_threads=2 / sliced_threads=0 / nr=0 / decimate=0 / interlaced=0 / bluray_compat=0 / constrained_intra=0 / bframes=11 / b_pyramid=2 / b_adapt=2 / b_bias=0 / direct=3 / weightb=1 / open_gop=0 / weightp=2 / keyint=250 / keyint_min=25 / scenecut=40 / intra_refresh=0 / rc_lookahead=60 / rc=2pass / mbtree=0 / bitrate=2197 / ratetol=1.0 / qcomp=0.60 / qpmin=0 / qpmax=60 / qpstep=4 / cplxblur=20.0 / qblur=0.5 / vbv_maxrate=50000 / vbv_bufsize=62500 / nal_hrd=none / ip_ratio=1.40 / pb_ratio=1.30 / aq=1:1.00
Default : Нет
Forced : Нет
Коэффициенты матрицы : BT.601

Аудио #1
Идентификатор : 2
Формат : AC-3
Формат/Информация : Audio Coding 3
Профиль формата : Dolby Digital
Расширение режима : CM (complete main)
Параметр Endianness формата : Big
Идентификатор кодека : A_AC3
Продолжительность : 1 ч. 40 м.
Вид битрейта : Постоянный
Битрейт : 192 Кбит/сек
Каналы : 2 канала
Расположение каналов : Front: L R
Частота : 48,0 КГц
Битовая глубина : 16 бит
Метод сжатия : С потерями
Размер потока : 138 Мбайт (7%)
Язык : English
Default : Нет
Forced : Нет

Аудио #2
Идентификатор : 3
Формат : AC-3
Формат/Информация : Audio Coding 3
Расширение режима : CM (complete main)
Параметр Endianness формата : Big
Идентификатор кодека : A_AC3
Продолжительность : 1 ч. 40 м.
Вид битрейта : Постоянный
Битрейт : 192 Кбит/сек
Каналы : 2 канала
Расположение каналов : Front: L R
Частота : 48,0 КГц
Битовая глубина : 16 бит
Метод сжатия : С потерями
Размер потока : 138 Мбайт (7%)
Язык : Russian
Default : Да
Forced : Нет

Аудио #3
Идентификатор : 4
Формат : AC-3
Формат/Информация : Audio Coding 3
Расширение режима : CM (complete main)
Параметр Endianness формата : Big
Идентификатор кодека : A_AC3
Продолжительность : 1 ч. 40 м.
Вид битрейта : Постоянный
Битрейт : 192 Кбит/сек
Каналы : 2 канала
Расположение каналов : Front: L R
Частота : 48,0 КГц
Битовая глубина : 16 бит
Метод сжатия : С потерями
Размер потока : 138 Мбайт (7%)
Язык : Russian
Default : Нет
Forced : Нет

Текст
Идентификатор : 5
Формат : VobSub
Режим смешивания : zlib
Идентификатор кодека : S_VOBSUB
Идентификатор кодека/Информация : The same subtitle format used on DVDs
Язык : English
Default : Нет
Forced : Нет

Меню
00:00:00.000 : en:Chapter 01
00:06:18.560 : en:Chapter 02
00:13:35.320 : en:Chapter 03
00:18:51.520 : en:Chapter 04
00:22:47.760 : en:Chapter 05
00:24:48.720 : en:Chapter 06
00:26:59.440 : en:Chapter 07
00:29:33.320 : en:Chapter 08
00:31:37.560 : en:Chapter 09
00:34:35.200 : en:Chapter 10
00:40:20.600 : en:Chapter 11
00:41:58.600 : en:Chapter 12
00:42:46.880 : en:Chapter 13
00:48:36.160 : en:Chapter 14
00:50:16.240 : en:Chapter 15
00:52:49.280 : en:Chapter 16
01:01:24.760 : en:Chapter 17
01:04:13.280 : en:Chapter 18
01:06:59.320 : en:Chapter 19
01:10:07.000 : en:Chapter 20
01:11:23.280 : en:Chapter 21
01:15:43.880 : en:Chapter 22
01:18:13.920 : en:Chapter 23
01:19:46.520 : en:Chapter 24
01:21:57.200 : en:Chapter 25
01:29:22.920 : en:Chapter 26
01:32:22.360 : en:Chapter 27
01:33:55.880 : en:Chapter 28
frame I:868 Avg QP:14.98 size: 67245
frame P:29388 Avg QP:17.62 size: 26006
frame B:121019 Avg QP:19.26 size: 6934
Релиз от: Temperest



Скачать Большое.разочарование.The.Big.Chill.(Лоуренс.Каздан).[1983.драма.комедия.DVDRip-AVC].[MVO]+[VO]+[Sub].torrent без регистрации
Золото ЗОЛОТАЯ РАЗДАЧА! СКАЧАННОЕ НЕ ЗАСЧИТЫВАЕТСЯ! Золото
Дата: Зарегистрирован   [ Тип: внутренний ] Как тут cкачать?
MAGNET ссылка
MAGNET ссылка


Скачать .torrent

20 KB

Статус: проверено DHT
Скачан: торрент - 100 раз, раздача полностью - 0 раз
Размер: 1,96 GB
Оценка:  - (Голосов: 0)
Поблагодарили: 2
Поделиться ссылкой на эту раздачу с друзьями:
В контактеFacebookОдноклассникиTwitterLivejournalМой МирLiveinternet
 

 
Показать сообщения:    


Вы не можете начинать темы
Вы не можете отвечать на сообщения
Вы не можете редактировать свои сообщения
Вы не можете удалять свои сообщения
Вы не можете голосовать в опросах
Вы не можете прикреплять файлы к сообщениям
Вы можете скачивать файлы