Loading...
Error

Скачать Лев Венеции / Il Leone di San Marco (Капуано Луиджи) [1963, приключения, DVDRip] [MVO] торрент без регистрации

 
Статистика раздачи
Размер:  1,36 GB   |    Скачан:  103 раза
Сидов:  1  [  0 KB/s  ]  
 
Автор Сообщение

Marsianka

[] 

Страна: Италия
Производство: Liber
Жанр: приключения
Год выпуска: 1963

Продолжительность: 01:26:51
Профессиональный многоголосый закадровый

Оригинальная аудиодорожка: Нет

Cубтитры: Нет
Режиссер: Капуано Луиджи

В ролях: Гордон Скотт, Анна Мария Падоян, Жанна Мария Канале, Джулио Маркетти, Рик Батталья, Федор Шаляпин мл., Джон Барта, Мирко Эллис, Франко Фантазия

Описание: Манрико, сын правителя Венеции, красив, благороден и прекрасно владеет шпагой. Ему не по душе праздная дворцовая жизнь. Под маской Льва Венеции он начинает борьбу с разбойниками и пиратами, бесчинствующими в окрестностях города. На его счету много подвигов и славных побед, но главная битва впереди - необходимо взять неприступную крепость, в которой находится логово пиратов...



Исходник: DVD5 R5

Тип релиза: DVDRip

Контейнер: AVI

Видео: 720x320 (2.25:1), 23.976 fps, XviD ~1786 kbps avg, 0.32 bit/pixel
Аудио: 48 kHz, 6.0 ch, ~448.00 kbps avg
Общее
Полное имя : D:1АААЛев Венеции.avi
Формат : AVI
Формат/Информация : Audio Video Interleave
Размер файла : 1,36 Гбайт
Продолжительность : 1 ч. 26 м.
Общий поток : 2244 Кбит/сек
Программа кодирования : VirtualDubMod 1.5.10.3 | www.virtualdub-fr.org || (build 2550/release)
Библиотека кодирования : VirtualDubMod build 2550/release

Видео
Идентификатор : 0
Формат : MPEG-4 Visual
Профиль формата : Advanced Simple@L5
Параметр BVOP формата : 2
Параметр QPel формата : Нет
Параметр GMC формата : Без точки перехода
Параметр матрицы формата : Default (MPEG)
Режим смешивания : Сжатый битовый поток
Идентификатор кодека : XVID
Идентификатор кодека/Подсказка : XviD
Продолжительность : 1 ч. 26 м.
Битрейт : 1787 Кбит/сек
Ширина : 720 пикселей
Высота : 320 пикселей
Соотношение сторон : 2,25:1
Частота кадров : 23,976 кадра/сек
Цветовое пространство : YUV
Субдискретизация насыщенности : 4:2:0
Битовая глубина : 8 бит
Тип развёртки : Прогрессивная
Метод сжатия : С потерями
Бит/(Пиксели*Кадры) : 0.323
Размер потока : 1,08 Гбайт (80%)
Библиотека кодирования : XviD 1.2.1 (UTC 2008-12-04)

Аудио
Идентификатор : 1
Формат : AC-3
Формат/Информация : Audio Coding 3
Расширение режима : CM (complete main)
Параметр Endianness формата : Big
Идентификатор кодека : 2000
Продолжительность : 1 ч. 26 м.
Вид битрейта : Постоянный
Битрейт : 448 Кбит/сек
Каналы : 6 каналов
Расположение каналов : Front: L C R, Side: L R, LFE
Частота : 48,0 КГц
Битовая глубина : 16 бит
Метод сжатия : С потерями
Размер потока : 278 Мбайт (20%)
Выравнивание : Разделение по промежуткам
Продолжительность промежутка : 42 мс. (1,00 видеокадр)
Время предзагрузки промежутка : 500 мс.
Релиз группа:

Автор рипа:



Скачать Лев.Венеции.Il.Leone.di.San.Marco.(Капуано.Луиджи).[1963.приключения.DVDRip].[MVO].torrent без регистрации
Золото ЗОЛОТАЯ РАЗДАЧА! СКАЧАННОЕ НЕ ЗАСЧИТЫВАЕТСЯ! Золото
Дата: Зарегистрирован   [ Тип: внутренний ] Как тут cкачать?
MAGNET ссылка
MAGNET ссылка


Скачать .torrent

14 KB

Статус: проверено DHT
Скачан: торрент - 103 раз, раздача полностью - 3 раз
Размер: 1,36 GB
Оценка:  - (Голосов: 0)
Поблагодарили: 2
Поделиться ссылкой на эту раздачу с друзьями:
В контактеFacebookОдноклассникиTwitterLivejournalМой МирLiveinternet
 

 
Показать сообщения:    


Вы не можете начинать темы
Вы не можете отвечать на сообщения
Вы не можете редактировать свои сообщения
Вы не можете удалять свои сообщения
Вы не можете голосовать в опросах
Вы не можете прикреплять файлы к сообщениям
Вы можете скачивать файлы