Loading...
Error

Скачать Ох уж эта наука! / Weird Science (Джон Хьюз) [1985, комедия, HDTVRip-AVC] [Dub]+[MVO]+[DVO]+[AVO]x2+[Оригинал] торрент без регистрации

 
Статистика раздачи
Размер:  3,31 GB   |    Скачан:  110 раз
Сидов:  1  [  0 KB/s  ]  
 
Автор Сообщение

Marsianka

[] 

Информация о фильме
Название: Ох уж эта наука!
Оригинальное название: Weird Science
Год выхода: 1985
Жанр: комедия
Режиссер: Джон Хьюз
В ролях: Энтони Майкл Холл, Келли ЛеБрок, Илан Митчелл-Смит, Билл Пэкстон, Сюзанн Снайдер, Джуди Аронсон, Роберт Дауни мл., Роберт Раслер, Вернон Уэллс, Бритт Лич, Барбара Лэнг, Майкл Берриман, Айвор Бэрри, Энн Койл, Джон Капелос, Фред Д. Скотт, Винс Таунсенд мл., Чино 'Фэтс' Уильямс, Джилл Уайтло, Уоллес Лэнгэм, Микул Робинс, Даррен Харрис, Рене Пропс, Майкл Крамер, Тодд Хоффман, ДМитч Дэвис, Мэри Стилсмит, Робин Фроман, Элисон Кэрол Лоу, Ким Малин, Дженнифер Бэлгобин, Джефф Дженсен, Принц Хьюз, Рик Ле Февр, Рок А. Уолкер, Джо Гиб, Кевин Томпсон, Даг МакХью, Памела Гордон

О фильме:
После просмотра фильма "Франкенштейн" два друга-неудачника Гари и Уайатт вдохновляются идеей создания идеальной девушки, которая бы лишила их девственности, став проводницей в мир чувственных наслаждений. Ребята набивают компьютер обложками от мужских журналов и, поместив туда же фотографию Эйнштейна, запускают программу. Спустя несколько минут в комнату входит созданная ими красавица Лиза. С ее появлением жизнь Гари и Уайатта меняется, но не совсем так, как планировали изобретатели...



Страна: США
Студия: Universal Pictures
Продолжительность: 01:33:23
Перевод: Дублированный, профессиональный многоголосый, профессиональный двухголосый, авторский одноголосый

Файл
Кодек: x264
Качество: HDTVRip-AVC
Видео: MPEG-4 AVC, 3216 Кбит/с, 1024x554, 23.976 кадр/с

Семпл
1: Русский AC3, 2 ch, 192 Кбит/с | Дублированный (Шестой канал СТС)
2: Русский AC3, 6 ch, 448 Кбит/с | Профессиональный многоголосый (Universal Russia)
3: Русский AC3, 2 ch, 192 Кбит/с | Профессиональный двухголосый (НТВ+)
4: Русский AC3, 6 ch, 448 Кбит/с | Авторский одноголосый (Андрей Гаврилов)
5: Русский AC3, 2 ch, 192 Кбит/с | Авторский одноголосый (Диктор CDV)
6: Английский AC3, 6 ch, 384 Кбит/с | Оригинал

В дубляже есть "заплатка" из многоголосого перевода на месте вырезанной сцены

Полное имя : Weird.Science.1985.x264.HDTVRip.(AVC).mkv
Формат : Matroska
Версия формата : Version 1
Размер файла : 3,31 Гбайт
Продолжительность : 1 ч. 33 м.
Общий поток : 5075 Кбит/сек
Название фильма : Weird Science (1985) [m]
Дата кодирования : UTC 2013-06-22 13:17:42
Программа кодирования : mkvmerge v2.1.0 ('Another Place To Fall') built on Aug 19 2007 13:40:07
Библиотека кодирования : libebml v0.7.7 + libmatroska v0.8.1

Видео
Идентификатор : 1
Формат : AVC
Формат/Информация : Advanced Video Codec
Профиль формата : High@L4.1
Параметр CABAC формата : Да
Параметр ReFrames формата : 14 кадров
Идентификатор кодека : V_MPEG4/ISO/AVC
Продолжительность : 1 ч. 33 м.
Битрейт : 3216 Кбит/сек
Ширина : 1024 пикселя
Высота : 554 пикселя
Соотношение сторон : 1,85:1
Частота кадров : 23,976 кадра/сек
Цветовое пространство : YUV
Субдискретизация насыщенности : 4:2:0
Битовая глубина : 8 бит
Тип развёртки : Прогрессивная
Бит/(Пиксели*Кадры) : 0.236
Размер потока : 2,03 Гбайт (61%)
Заголовок : Weird Science (1985)
Библиотека кодирования : x264 core 115 r2008bm 4c552d8
Настройки программы : cabac=1 / ref=14 / deblock=1:0:0 / analyse=0x3:0x133 / me=umh / subme=10 / psy=1 / psy_rd=0.80:0.05 / mixed_ref=1 / me_range=32 / chroma_me=1 / trellis=2 / 8x8dct=1 / cqm=0 / deadzone=21,11 / fast_pskip=0 / chroma_qp_offset=-3 / threads=6 / sliced_threads=0 / nr=0 / decimate=0 / interlaced=0 / bluray_compat=0 / constrained_intra=0 / bframes=10 / b_pyramid=2 / b_adapt=2 / b_bias=0 / direct=3 / weightb=1 / open_gop=0 / weightp=2 / keyint=250 / keyint_min=23 / scenecut=40 / intra_refresh=0 / rc=2pass / mbtree=0 / bitrate=3216 / ratetol=1.0 / qcomp=0.75 / qpmin=0 / qpmax=69 / qpstep=4 / cplxblur=20.0 / qblur=0.5 / ip_ratio=1.40 / pb_ratio=1.30 / aq=2:1.25
Язык : English
Default : Да
Forced : Нет

Аудио #1
Идентификатор : 2
Формат : AC-3
Формат/Информация : Audio Coding 3
Расширение режима : CM (complete main)
Параметр Endianness формата : Big
Идентификатор кодека : A_AC3
Продолжительность : 1 ч. 33 м.
Вид битрейта : Постоянный
Битрейт : 192 Кбит/сек
Каналы : 2 канала
Расположение каналов : Front: L R
Частота : 48,0 КГц
Битовая глубина : 16 бит
Метод сжатия : С потерями
Размер потока : 128 Мбайт (4%)
Заголовок : DUB (STS)
Язык : Russian
Default : Да
Forced : Нет

Аудио #2
Идентификатор : 3
Формат : AC-3
Формат/Информация : Audio Coding 3
Расширение режима : CM (complete main)
Параметр Endianness формата : Big
Идентификатор кодека : A_AC3
Продолжительность : 1 ч. 33 м.
Вид битрейта : Постоянный
Битрейт : 448 Кбит/сек
Каналы : 6 каналов
Расположение каналов : Front: L C R, Side: L R, LFE
Частота : 48,0 КГц
Битовая глубина : 16 бит
Метод сжатия : С потерями
Размер потока : 299 Мбайт (9%)
Заголовок : MVO (Universal Russia)
Язык : Russian
Default : Нет
Forced : Нет

Аудио #3
Идентификатор : 4
Формат : AC-3
Формат/Информация : Audio Coding 3
Расширение режима : CM (complete main)
Параметр Endianness формата : Big
Идентификатор кодека : A_AC3
Продолжительность : 1 ч. 33 м.
Вид битрейта : Постоянный
Битрейт : 192 Кбит/сек
Каналы : 2 канала
Расположение каналов : Front: L R
Частота : 48,0 КГц
Битовая глубина : 16 бит
Метод сжатия : С потерями
Размер потока : 128 Мбайт (4%)
Заголовок : DVO (NTV+)
Язык : Russian
Default : Нет
Forced : Нет

Аудио #4
Идентификатор : 5
Формат : AC-3
Формат/Информация : Audio Coding 3
Расширение режима : CM (complete main)
Параметр Endianness формата : Big
Идентификатор кодека : A_AC3
Продолжительность : 1 ч. 33 м.
Вид битрейта : Постоянный
Битрейт : 448 Кбит/сек
Каналы : 6 каналов
Расположение каналов : Front: L C R, Side: L R, LFE
Частота : 48,0 КГц
Битовая глубина : 16 бит
Метод сжатия : С потерями
Размер потока : 299 Мбайт (9%)
Заголовок : AVO (Gavrilov)
Язык : Russian
Default : Нет
Forced : Нет

Аудио #5
Идентификатор : 6
Формат : AC-3
Формат/Информация : Audio Coding 3
Расширение режима : CM (complete main)
Параметр Endianness формата : Big
Идентификатор кодека : A_AC3
Продолжительность : 1 ч. 33 м.
Вид битрейта : Постоянный
Битрейт : 192 Кбит/сек
Каналы : 2 канала
Расположение каналов : Front: L R
Частота : 48,0 КГц
Битовая глубина : 16 бит
Метод сжатия : С потерями
Размер потока : 128 Мбайт (4%)
Заголовок : AVO (Diktor CDV)
Язык : Russian
Default : Нет
Forced : Нет

Аудио #6
Идентификатор : 7
Формат : AC-3
Формат/Информация : Audio Coding 3
Расширение режима : CM (complete main)
Параметр Endianness формата : Big
Идентификатор кодека : A_AC3
Продолжительность : 1 ч. 33 м.
Вид битрейта : Постоянный
Битрейт : 384 Кбит/сек
Каналы : 6 каналов
Расположение каналов : Front: L C R, Side: L R, LFE
Частота : 48,0 КГц
Битовая глубина : 16 бит
Метод сжатия : С потерями
Размер потока : 256 Мбайт (8%)
Язык : English
Default : Нет
Forced : Нет



Скачать Ох.уж.эта.наука!.Weird.Science.(Джон.Хьюз).[1985.комедия.HDTVRip-AVC].[Dub]+[MVO]+[DVO]+[AVO]x2+[Оригинал].torrent без регистрации
Золото ЗОЛОТАЯ РАЗДАЧА! СКАЧАННОЕ НЕ ЗАСЧИТЫВАЕТСЯ! Золото
Дата: Зарегистрирован   [ Тип: внутренний ] Как тут cкачать?
MAGNET ссылка
MAGNET ссылка


Скачать .torrent

17 KB

Статус: проверено DHT
Скачан: торрент - 110 раз, раздача полностью - 16 раз
Размер: 3,31 GB
Оценка:  5 (Голосов: 1)
Поблагодарили: 3
Поделиться ссылкой на эту раздачу с друзьями:
В контактеFacebookОдноклассникиTwitterLivejournalМой МирLiveinternet
 

 
Показать сообщения:    


Вы не можете начинать темы
Вы не можете отвечать на сообщения
Вы не можете редактировать свои сообщения
Вы не можете удалять свои сообщения
Вы не можете голосовать в опросах
Вы не можете прикреплять файлы к сообщениям
Вы можете скачивать файлы