Loading...
Error

Скачать Лоис и Кларк: новые приключения Супермена / Lois & Clark: The New Adventures of Superman (Сезон 01-04, серии 01-88 из 88) (Joe Shuster, Jerry Siegel) [1993-1997, фантастика,комедия,приключения, DVDRip] [MVO] (SyFy Universal) торрент без регистрации

 
Статистика раздачи
Размер:  34,8 GB   |    Скачан:  212 раз
Сидов:  1  [  0 KB/s  ]  
 
Автор Сообщение

leon030982

[] 

Лоис и Кларк: новые приключения Супермена / Lois & Clark: The New Adventures of Superman


Год выпуска: 1993-1997
Страна: США
Жанр: фантастика,комедия,приключения
Продолжительность: серия ~ 00:46:00
Перевод: Профессиональный (многоголосый закадровый) [SyFy Universal]
Русские субтитры: нет
Субтитры: отсутствуют

Создатели: Joe Shuster, Jerry Siegel

В ролях: Дин Кэйн, Тэри Хэтчер, Лейн Смит, Эдди Джонс, К.Кэллан


Бесстрашной журналистке становится известно, что космолёт «Мессенджер» под большой угрозой. В то же время из Канзаса переправляется Супермен, который начинает работать журналистом на газету «Дэйли Плэнет». Работая там под именем Кларка Кента, Лоис и Кларк начинают разбираться в сложнейшей и рисковой ситуации вместе. У них есть противники – миллионер Лекс Лютер. Это негодяй жаждет захватить все достижения учёного Плата касаемо создания неповторимых космических лекарств.



Качество: DVDRip
Формат: AVI
Видео кодек: XviD
Аудио кодек: MP3
Видео: XviD, 688x480, NTSC 23.976 fps, 1100 kbps, 0.139 bit/pixel
Аудио: MP3, 48000 Hz, 2Ch, 128 кбит/с
Общее
Полное имя : E:\Serials\Lois & Clark\lois&clark.the.new.adventures.of.superman.s01.rus(syfy).0day\lois&clark.the.new.adventures.of.superman.s01e04.rus(syfy).0day.avi
Формат : AVI
Формат/Информация : Audio Video Interleave
Размер файла : 413 Мбайт
Продолжительность : 46 м.
Общий поток : 1237 Кбит/сек
Программа кодирования : VirtualDubMod 1.5.10.2 (build 2542/release)
Библиотека кодирования : VirtualDubMod build 2542/release
Видео
Идентификатор : 0
Формат : MPEG-4 Visual
Профиль формата : Advanced Simple@L5
Параметр BVOP формата : 2
Параметр QPel формата : Нет
Параметр GMC формата : Без точки перехода
Параметр матрицы формата : Default (H.263)
Идентификатор кодека : XVID
Идентификатор кодека/Подсказка : XviD
Продолжительность : 46 м.
Битрейт : 1100 Кбит/сек
Ширина : 688 пикс.
Высота : 480 пикс.
Соотношение сторон : 1,433
Частота кадров : 23,976 кадр/сек
Цветовое пространство : YUV
Подвыборка цветности : 4:2:0
Битовая глубина : 8 бит
Тип развёртки : Прогрессивная
Метод сжатия : С потерями
Бит/(Пиксели*Кадры) : 0.139
Размер потока : 367 Мбайт (89%)
Библиотека кодирования : XviD 1.2.1 (UTC 2008-12-04)
Аудио
Идентификатор : 1
Формат : MPEG Audio
Версия формата : Version 1
Профиль формата : Layer 3
Режим : Joint stereo
Расширение режима : MS Stereo
Идентификатор кодека : 55
Идентификатор кодека/Подсказка : MP3
Продолжительность : 46 м.
Вид битрейта : Постоянный
Битрейт : 128 Кбит/сек
Канал(ы) : 2 канала(ов)
Частота : 48,0 КГц
Метод сжатия : С потерями
Размер потока : 42,7 Мбайт (10%)
Выравнивание : Соединение по промежуткам
Продолжительность промежутка : 42 мс. (1,00 видеокадр)
Время предзагрузки промежутка : 504 ms
Библиотека кодирования : LAME3.98r
Настройки программы : -m j -V 4 -q 2 -lowpass 17 -b 128



Скачать Лоис.и.Кларк.новые.приключения.Супермена.Lois.&.Clark.The.New.Adventures.of.Superman.(Сезон.01-04.серии.01-88.из.88).(Joe.Shuster.Jerry.Siegel).[1993-1997.фантастика.комедия.приключения.DVDRip].[MVO].(SyFy.Universal).torrent без регистрации
Золото ЗОЛОТАЯ РАЗДАЧА! СКАЧАННОЕ НЕ ЗАСЧИТЫВАЕТСЯ! Золото
Дата: Зарегистрирован   [ Тип: внутренний ] Как тут cкачать?
MAGNET ссылка
MAGNET ссылка


Скачать .torrent

188 KB

Статус: проверено DHT
Скачан: торрент - 212 раз, раздача полностью - 12 раз
Размер: 34,8 GB
Оценка:  5 (Голосов: 4)
Поблагодарили: 2
Поделиться ссылкой на эту раздачу с друзьями:
В контактеFacebookОдноклассникиTwitterLivejournalМой МирLiveinternet
 

 
Показать сообщения:    


Вы не можете начинать темы
Вы не можете отвечать на сообщения
Вы не можете редактировать свои сообщения
Вы не можете удалять свои сообщения
Вы не можете голосовать в опросах
Вы не можете прикреплять файлы к сообщениям
Вы можете скачивать файлы