Loading...
Error

Скачать Возвращение живых мертвецов - 2 / Return of the Living Dead 2 (Кен Видерхорн / Ken Wiederhorn) [1988, ужасы, HDRip-AVC] [MVO] торрент без регистрации

 
Статистика раздачи
Размер:  822 MB   |    Скачан:  131 раз

Полного источника не было: 2 года 7 месяцев

Ждете ли 3 -ю часть в HDRip - AVC ???

Да жду конечно   100%  100%  [ 1 ]
хватает и DVD рипа   0%  0%  [ 0 ]

Всего проголосовало : 1

 
Автор Сообщение

jon99

[] 


Возвращение живых мертвецов -2 / Return of the Living Dead 2

«Just when you thought it was safe to be dead.»


Год выпуска: 1988
Выпущено: США
Жанр: ужасы
Продолжительность: 01:29:23
Перевод: Профессиональный (многоголосый) Премьер Видео Фильм
Субтитры: нет
Режиссер: Кен Видерхорн / Ken Wiederhorn
В ролях: Майкл Кенуорти
Тор Ван Линген, Джейсон Хоган, Джеймс Карен, Том Мэтьюз, Сюзанн Снайдер, Марша Дитлайн, Сьюзен Стэднер, Джонатан Терри, Дэна Эшбрук

Описание: Мертвые не любят «прохлаждаться» под землёй, в особенности в фильмах ужасов. И вегетарианская диета им совсем не подходит. Именно поэтому кровожадные зомби решают в очередной раз полакомиться человеческими мозгами.Новое поколение зомби появилось на свет из-за аварии армейского грузовика, перевозившего нервно-паралитический газ. Зловещие зелёные испарения доползли до местного кладбища и оживили сотни проголодавшихся покойников, которые с энтузиазмом вышли на охоту!Ожившие мертвецы решают устроить — пир, «приготовив», «в качестве «главного блюда», беспечных жителей местного городка! Мёртвые очень не любят живых, и их месть людям будет беспощадна и ужасна!



Доп. информация: HDRip-AVC - источник WEB RIP DL 720p

Качество: HDRip-AVC
Формат: MKV
Видео кодек: H.264
Аудио кодек: AC3
Видео: Size: 858 x 480 (16:9) /fps: 23.976 fps/ bitrate: 1 100 Kbps
Аудио#1: AC3 48 kHz, 2 ch, ~192.00 kbps - MVO.Премьер Видео Фильм



ТОРРЕНТ ПЕРЕЗАЛИТ , ПРОСЬБА ПЕРЕКАЧАТЬ





Аудио#2: AAC 48 kHz, 2 ch, ~192.00 kbps - AVO.Гаврилов(с VHS) - http://yadi.sk/d/fvJDVMyV6IMj6
Аудио#3: AAC 48 kHz, 2 ch, ~192.00 kbps - AVO.Живов - http://yadi.sk/d/G5JKZeB-6IMjA
Аудио#4: AAC 48 kHz, 2 ch, ~192.00 kbps - AVO.Сонькин(c VHS) - http://yadi.sk/d/9SUeenuG6IMj2
Аудио#5: AAC 48 kHz, 2 ch, ~192.00 kbps - AVO.Филонов - http://yadi.sk/d/DJE-o0xS6IMis
Аудио#6: AAC 48 kHz, 2 ch, ~192.00 kbps - Original_Eng - http://yadi.sk/d/mhnjcSz76IMie
General
Complete name : D:\Возвращение живых мертвецов II (1988) HDRip-AVC\Return.of.the.Living.Dead.Part.II.1988.HDRip-AVC..mkv
Format : Matroska
File size : 822 MiB
Duration : 1h 29mn
Overall bit rate : 1 286 Kbps
Encoded date : UTC 2013-06-24 15:22:36
Writing application : mkvmerge v4.3.0 ('Escape from the Island') сборка от Sep 5 2010 10:30:51
Writing library : libebml v1.0.0 + libmatroska v1.0.0

Video
ID : 1
Format : AVC
Format/Info : Advanced Video Codec
Format profile : Baseline@L1.3
Format settings, CABAC : No
Format settings, ReFrames : 2 frames
Muxing mode : Container profile=Unknown@1.3
Codec ID : V_MPEG4/ISO/AVC
Duration : 1h 29mn
Bit rate : 1 069 Kbps
Nominal bit rate : 1 100 Kbps
Width : 858 pixels
Height : 480 pixels
Display aspect ratio : 16:9
Frame rate : 23.976 fps
Original frame rate : 47.952 fps
Resolution : 8 bits
Colorimetry : 4:2:0
Scan type : Progressive
Bits/(Pixel*Frame) : 0.108
Stream size : 683 MiB (83%)
Writing library : x264 core 116 r2074 2641b9e
Encoding settings : cabac=0 / ref=2 / deblock=1:0:0 / analyse=0x1:0x111 / me=umh / subme=6 / psy=1 / psy_rd=1.00:0.00 / mixed_ref=1 / me_range=16 / chroma_me=1 / trellis=0 / 8x8dct=0 / cqm=0 / deadzone=21,11 / fast_pskip=1 / chroma_qp_offset=-2 / threads=12 / sliced_threads=0 / nr=0 / decimate=1 / interlaced=0 / bluray_compat=0 / constrained_intra=0 / bframes=0 / weightp=0 / keyint=250 / keyint_min=23 / scenecut=40 / intra_refresh=0 / rc_lookahead=40 / rc=abr / mbtree=1 / bitrate=1100 / ratetol=1.0 / qcomp=0.60 / qpmin=0 / qpmax=69 / qpstep=4 / ip_ratio=1.40 / aq=1:1.00

Audio
ID : 2
Format : AC-3
Format/Info : Audio Coding 3
Codec ID : A_AC3
Duration : 1h 29mn
Bit rate mode : Constant
Bit rate : 192 Kbps
Channel(s) : 2 channels
Channel positions : L R
Sampling rate : 48.0 KHz
Stream size : 123 MiB (15%)
Title : MVO.(с VHS)(Премьер Видео Фильм)
Language : Russian





Скачать Возвращение.живых.мертвецов.-.2.Return.of.the.Living.Dead.2.(Кен.Видерхорн.Ken.Wiederhorn).[1988.ужасы.HDRip-AVC].[MVO].torrent без регистрации
Золото ЗОЛОТАЯ РАЗДАЧА! СКАЧАННОЕ НЕ ЗАСЧИТЫВАЕТСЯ! Золото
Дата: Зарегистрирован   [ Тип: внутренний ] Как тут cкачать?
MAGNET ссылка
MAGNET ссылка


Скачать .torrent

17 KB

Статус: проверено
Скачан: торрент - 131 раз, раздача полностью - 0 раз
Размер: 822 MB
Оценка:  5 (Голосов: 11)
Поблагодарили: 13
Поделиться ссылкой на эту раздачу с друзьями:
В контактеFacebookОдноклассникиTwitterLivejournalМой МирLiveinternet
 

 

jon99

[] 

напоминаю что скорость отдачи увы не превышает 100 кб/сек ac ждите как скачается... выкладываю т к на этом трекере нет подобных раздач и делаю рипы для людей ценящих подобные ужастики ad
________________________________________________________________________________________________________________________________________________________________________________
на подходе 3 -ая часть в HDRip-AVC ad исходник как заверяет раздающий был: Blu-Ray Remux (1080p)
http://www.blu-ray.com/movies/Return-of-the-Living-Dead-3-Blu-ray/74000/#Overview
вышел Oct 05, 2012
вот скрины с рипа 720p (который имеется в сети - единственный который нашол...)
 
Показать сообщения:    


Вы не можете начинать темы
Вы не можете отвечать на сообщения
Вы не можете редактировать свои сообщения
Вы не можете удалять свои сообщения
Вы не можете голосовать в опросах
Вы не можете прикреплять файлы к сообщениям
Вы можете скачивать файлы