Loading...
Error

Скачать Незнакомка / The Stranger (Фриц Кирш) [1995, боевик, DVDRip] [DVO]+[Оригинал] торрент без регистрации

 
Статистика раздачи
Размер:  1,37 GB   |    Скачан:  116 раз
Сидов:  1  [  0 KB/s  ]  
 
Автор Сообщение

Marsianka

[] 

Страна: США
Производство: Kings Road Entertainment, Planet Productions
Жанр: боевик
Год выпуска: 1995

Продолжительность: 01:34:26

Перевод: Профессиональный двухголосый

Оригинальная аудиодорожка: Английския

Cубтитры: Нет

Режиссер: Фриц Кирш

В ролях: Кэти Лонг, Эндрю Дивофф, Эрик Пьерпойнт, Джейсон Адамс, Робин Линн Хит, Эш Эдамс, Джинджер Линн Аллен, Дэвид Энтони Маршалл, Нилс Аллен Стюарт, Дэнни Трехо, Фэйт Минтон



Описание: Городок в Аризоне находится под контролем жестокой банды байкеров. Местный шериф запуган, его невеста убита при попытке передать в ФБР улики против бандитов. Однажды в городке появляется загадочная незнакомка на мотоцикле. Она выглядит в точности так же, как погибшая невеста шерифа и полна решимости уничтожить всю банду

Исходник: DVD5 R5

Тип релиза: DVDRip

Контейнер: AVI

Видео: 720x544 (1.32:1), 23.976 fps, XviD ~1609 kbps avg, 0.17 bit/pixel
Аудио: #1: 48 kHz, AC3 6.0 ~224.00 kbps avg (RUS)
Аудио: #2: 48 kHz, AC3 6.0 ~224.00 kbps avg (ENG)
Общее
Полное имя : D:1АААНезнакомка.avi
Формат : AVI
Формат/Информация : Audio Video Interleave
Размер файла : 1,37 Гбайт
Продолжительность : 1 ч. 34 м.
Общий поток : 2072 Кбит/сек
Программа кодирования : VirtualDubMod 1.5.10.2 (build 2540/release)
Библиотека кодирования : VirtualDubMod build 2540/release

Видео
Идентификатор : 0
Формат : MPEG-4 Visual
Профиль формата : Advanced Simple@L5
Параметр BVOP формата : 2
Параметр QPel формата : Нет
Параметр GMC формата : Без точки перехода
Параметр матрицы формата : Default (MPEG)
Режим смешивания : Сжатый битовый поток
Идентификатор кодека : XVID
Идентификатор кодека/Подсказка : XviD
Продолжительность : 1 ч. 34 м.
Битрейт : 1610 Кбит/сек
Ширина : 720 пикселей
Высота : 544 пикселя
Соотношение сторон : 4:3
Частота кадров : 23,976 кадра/сек
Цветовое пространство : YUV
Субдискретизация насыщенности : 4:2:0
Битовая глубина : 8 бит
Тип развёртки : Прогрессивная
Метод сжатия : С потерями
Бит/(Пиксели*Кадры) : 0.171
Размер потока : 1,06 Гбайт (78%)
Библиотека кодирования : XviD 1.2.1 (UTC 2008-12-04)

Аудио #1
Идентификатор : 1
Формат : AC-3
Формат/Информация : Audio Coding 3
Расширение режима : CM (complete main)
Параметр Endianness формата : Big
Идентификатор кодека : 2000
Продолжительность : 1 ч. 34 м.
Вид битрейта : Постоянный
Битрейт : 224 Кбит/сек
Каналы : 6 каналов
Расположение каналов : Front: L C R, Side: L R, LFE
Частота : 48,0 КГц
Битовая глубина : 16 бит
Метод сжатия : С потерями
Размер потока : 151 Мбайт (11%)
Выравнивание : Разделение по промежуткам
Продолжительность промежутка : 42 мс. (1,00 видеокадр)
Время предзагрузки промежутка : 500 мс.

Аудио #2
Идентификатор : 2
Формат : AC-3
Формат/Информация : Audio Coding 3
Расширение режима : CM (complete main)
Параметр Endianness формата : Big
Идентификатор кодека : 2000
Продолжительность : 1 ч. 34 м.
Вид битрейта : Постоянный
Битрейт : 224 Кбит/сек
Каналы : 6 каналов
Расположение каналов : Front: L C R, Side: L R, LFE
Частота : 48,0 КГц
Битовая глубина : 16 бит
Метод сжатия : С потерями
Размер потока : 151 Мбайт (11%)
Выравнивание : Разделение по промежуткам
Продолжительность промежутка : 42 мс. (1,00 видеокадр)
Время предзагрузки промежутка : 500 мс.
Релиз группа:

Автор рипа:



Скачать Незнакомка.The.Stranger.(Фриц.Кирш).[1995.боевик.DVDRip].[DVO]+[Оригинал].torrent без регистрации
Золото ЗОЛОТАЯ РАЗДАЧА! СКАЧАННОЕ НЕ ЗАСЧИТЫВАЕТСЯ! Золото
Дата: Зарегистрирован   [ Тип: внутренний ] Как тут cкачать?
MAGNET ссылка
MAGNET ссылка


Скачать .torrent

14 KB

Статус: проверено DHT
Скачан: торрент - 116 раз, раздача полностью - 17 раз
Размер: 1,37 GB
Оценка:  5 (Голосов: 1)
Поблагодарили: 4
Поделиться ссылкой на эту раздачу с друзьями:
В контактеFacebookОдноклассникиTwitterLivejournalМой МирLiveinternet
 

 
Показать сообщения:    


Вы не можете начинать темы
Вы не можете отвечать на сообщения
Вы не можете редактировать свои сообщения
Вы не можете удалять свои сообщения
Вы не можете голосовать в опросах
Вы не можете прикреплять файлы к сообщениям
Вы можете скачивать файлы