Loading...
Error

Скачать Франкенштейн / Frankenstein (Кеннет Брэна / Kenneth Branagh) [1994, Ужасы, Драма, Мелодрама, HDRip] 2х[AVO] (А.Гаврилов, Ю.Сербин) + original (Eng) торрент без регистрации

 
Статистика раздачи
Размер:  2,37 GB   |    Скачан:  131 раз
Сидов:  1  [  0 KB/s  ]  
 
Автор Сообщение

leon030982

[] 

Франкенштейн / Frankenstein



Год выпуска: 1994
Страна: США, Япония, Великобритания
Жанр: Ужасы, Драма, Мелодрама
Продолжительность: 02:03:10
Перевод 1: Авторский (одноголосый) (А.Гаврилов)
Перевод 2: Авторский (одноголосый) (Ю.Сербин)
Cубтитры: нет
Режиссер: Кеннет Брэна / Kenneth Branagh
В ролях:
Роберт Де Ниро /Robert De Niro/, Кеннет Брэна /Kenneth Branagh/, Том Хульц /Tom Hulce/, Хелена Бонем Картер /Helena Bonham Carter/, Эйдан Куинн /Aidan Quinn/, Иэн Холм /Ian Holm/, Ричард Брирс /Richard Briers/, Джон Клиз /John Cleese/, Роберт Харди /Robert Hardy/, Шери Лунги /Cherie Lunghi/, Селия Имри /Celia Imrie/, Trevyn McDowell, Джерард Хоран /Gerard Horan/, Марк Хэдфилд /Mark Hadfield/, Джоэнна Рот /Joanna Roth/, Sasha Hanau, Джозеф Инглэнд /Joseph England/, Альфред Белл /Alfred Bell/, Ричард Клиффорд /Richard Clifford/, Джордж Эспри /George Asprey/
Описание:
Этот фильм – экранизация знаменитого готического романа Мэри Шелли о чудовище, созданном гениальным доктором Франкенштейном, признана критиками самой страшной из всех киноверсий книги. Продюсер фильма Френсис Коппола и режиссер Кеннет Брана, признанные мастера жанра создали по-настоящему гипнотическое зрелище о похождениях ужасного монстра, в роли которого выступил Роберт Де Ниро, еще раз продемонстрировавший свой уникальный дар – завораживать зрителей и заставлять трепетать от страха их сердца.
Доп. информация:
Бюджет: $45 000 000
Сборы в США: $22 006 296
Сборы в мире: + $90 000 000 = $112 006 296

Качество видео: HDRip
Формат видео: AVI
Видео: 720x384 (1.83:1), 23.976 fps, XviD build 50 ~1647 kbps avg, 0.20 bit/pixel
Аудио:
Аудио #1: Dolby AC3 / 5.1 / 48 kHz / 448 kbps ( А.Гаврилов )
Аудио #2: Dolby AC3 / 2.0 / 48 kHz / 192 kbps ( Ю.Сербин )
Аудио #3: Dolby AC3 / 5.1 / 48 kHz / 448 kbps ( оригинал )

• «Франкенштейн» – экранизация романа Мэри Шелли «Франкенштейн, или Современный Прометей». Несмотря на некоторые расхождения с оригинальным литературным произведением, это самая близкая к тексту киноверсия «Франкенштейна» Шелли.
• В одной из сцен Роберт Де Ниро должен был укусить эпизодическую героиню, которую играла Фэй Рипли. Сцену сняли, но в окончательный вариант она не вошла.
• Одну из второплановых ролей мог сыграть Кристофер Ламберт, но незадолго до начала съемок его заменили на другого актёра.
• Кеннет Брана (режиссер) настоял на том, чтобы слово «монстр» не использовалось в титрах фильма.
• Роберт Де Ниро специально общался с людьми, пережившими тяжелые физические травмы, чтобы научиться говорить также, как человек, находящийся в подобном состоянии.
• От роли монстра отказался Жерар Депардье.
• Съемочный период: октябрь 1993 – февраль 1994.
E:\INTERNET\Frankenstein.1994.HDRip.2xAVO.avi
General
Complete name : E:\INTERNET\Frankenstein.1994.HDRip.2xAVO.avi
Format : AVI
Format/Info : Audio Video Interleave
Format profile : OpenDML
File size : 2.37 GiB
Duration : 2h 3mn
Overall bit rate : 2 758 Kbps
Director : Consul
Writing application : VirtualDubModRus 1.5.10.2 (build 2542/release)
Writing library : VirtualDubMod build 2542/release
Video #0
ID : 0
Format : MPEG-4 Visual
Format profile : Advanced Simple@L5
Format settings, BVOP : 1
Format settings, QPel : No
Format settings, GMC : No warppoints
Format settings, Matrix : Custom
Codec ID : XVID
Codec ID/Hint : XviD
Duration : 2h 3mn
Bit rate : 1 647 Kbps
Width : 720 pixels
Height : 384 pixels
Display aspect ratio : 1.85:1
Frame rate : 23.976 fps
Color space : YUV
Chroma subsampling : 4:2:0
Bit depth : 8 bits
Scan type : Progressive
Compression mode : Lossy
Bits/(Pixel*Frame) : 0.248
Stream size : 1.42 GiB (60%)
Writing library : XviD 73
Audio #1
ID : 1
Format : AC-3
Format/Info : Audio Coding 3
Mode extension : CM (complete main)
Format settings, Endianness : Big
Codec ID : 2000
Duration : 2h 3mn
Bit rate mode : Constant
Bit rate : 448 Kbps
Channel(s) : 6 channels
Channel positions : Front: L C R, Side: L R, LFE
Sampling rate : 48.0 KHz
Bit depth : 16 bits
Compression mode : Lossy
Stream size : 395 MiB (16%)
Alignment : Split accross interleaves
Interleave, duration : 42 ms (1.00 video frame)
Interleave, preload duration : 500 ms
Title : AVO ( А.Гаврилов )
Audio #2
ID : 2
Format : AC-3
Format/Info : Audio Coding 3
Mode extension : CM (complete main)
Format settings, Endianness : Big
Codec ID : 2000
Duration : 2h 3mn
Bit rate mode : Constant
Bit rate : 192 Kbps
Channel(s) : 2 channels
Channel positions : Front: L R
Sampling rate : 48.0 KHz
Bit depth : 16 bits
Compression mode : Lossy
Stream size : 169 MiB (7%)
Alignment : Split accross interleaves
Interleave, duration : 42 ms (1.00 video frame)
Interleave, preload duration : 500 ms
Title : AVO ( Ю.Сербин )
Audio #3
ID : 3
Format : AC-3
Format/Info : Audio Coding 3
Mode extension : CM (complete main)
Format settings, Endianness : Big
Codec ID : 2000
Duration : 2h 3mn
Bit rate mode : Constant
Bit rate : 448 Kbps
Channel(s) : 6 channels
Channel positions : Front: L C R, Side: L R, LFE
Sampling rate : 48.0 KHz
Bit depth : 16 bits
Compression mode : Lossy
Stream size : 395 MiB (16%)
Alignment : Split accross interleaves
Interleave, duration : 42 ms (1.00 video frame)
Interleave, preload duration : 500 ms
Title : Оригинал



Скачать Франкенштейн.Frankenstein.(Кеннет.Брэна.Kenneth.Branagh).[1994.Ужасы.Драма.Мелодрама.HDRip].2х[AVO].(А.Гаврилов.Ю.Сербин).+.original.(Eng).torrent без регистрации
Золото ЗОЛОТАЯ РАЗДАЧА! СКАЧАННОЕ НЕ ЗАСЧИТЫВАЕТСЯ! Золото
Дата: Зарегистрирован   [ Тип: внутренний ] Как тут cкачать?
MAGNET ссылка
MAGNET ссылка


Скачать .torrent

12 KB

Статус: проверено DHT
Скачан: торрент - 131 раз, раздача полностью - 1 раз
Размер: 2,37 GB
Оценка:  5 (Голосов: 2)
Поблагодарили: 7
Поделиться ссылкой на эту раздачу с друзьями:
В контактеFacebookОдноклассникиTwitterLivejournalМой МирLiveinternet
 

 
Показать сообщения:    


Вы не можете начинать темы
Вы не можете отвечать на сообщения
Вы не можете редактировать свои сообщения
Вы не можете удалять свои сообщения
Вы не можете голосовать в опросах
Вы не можете прикреплять файлы к сообщениям
Вы можете скачивать файлы