Loading...
Error

Скачать Космические дальнобойщики / Space Truckers (Стюарт Гордон / Stuart Gordon) [1996, фантастика, триллер, боевик, приключения, DVDRip] [AVO] (Ю.Сербин) торрент без регистрации

 
Статистика раздачи
Размер:  1,2 GB   |    Скачан:  136 раз

Полного источника не было: 30 минут

 
Автор Сообщение

leon030982

[] 

Космические дальнобойщики / Space Truckers


Год выпуска: 1996
Страна: Великобритания, США, Ирландия
Жанр: фантастика, триллер, боевик, приключения
Продолжительность: 01:32:26
Перевод: Авторский (одноголосный) [Юрий Сербин]
Cубтитры: нет

Режиссер: Стюарт Гордон / Stuart Gordon

В ролях: Деннис Хоппер, Стивен Дорф, Деби Мейзар, Чарльз Дэнс, Тим Лоан, Йен Битти, Олуэн Фуэр, Шэйн Риммер, Роджер Грегг, Деннис Акаяма, Симус Флавин, Джейсон О’Мара

Описание: 2196 год. Водитель, перевозящий грузы на далекие планеты, хочет остаться независимым от могущественной Корпорации. Поэтому за большие деньги он берется перевезти сомнительный груз. Чтобы сократить путь, он направляется через Галактику, где царит разбой и пиратство…



Качество видео: DVDRip
Формат видео: AVI
Видео кодек: XviD
Аудио кодек: AC3
Видео: XviD build 47, 704x320 (2.20:1), 25.00 fps, 1662 kbps avg, 0.29 bit/pixel
Аудио: AC3 Dolby Digital, 48000Hz, 2/0 ch, 192.00 kbps avg
Дорожка с Ю. Сербиным синхронизирована, ремастирована и наложена ale_x2008 при помощи Adobe Audition, Sony Vegas и VirtualDubMod.
За оцифрованную с VHS дорожку благодарим - Fikaloid
Релиз с этим переводом является эксклюзивом для ex.ua, при выкладывании на других ресурсах просьба указывать первоисточник и авторство.
E:\INTERNET\Космические дальнобойщики.1996.DVDRip._ [AVO] (Serbin).avi
General
Complete name : E:\INTERNET\Космические дальнобойщики.1996.DVDRip._ [AVO] (Serbin).avi
Format : AVI
Format/Info : Audio Video Interleave
File size : 1.20 GiB
Duration : 1h 32mn
Overall bit rate : 1 865 Kbps
Writing application : VirtualDubModRus 1.5.10.2 (build 2542/release)
Writing library : VirtualDubMod build 2542/release
Video #0
ID : 0
Format : MPEG-4 Visual
Format profile : Advanced Simple@L5
Format settings, BVOP : 1
Format settings, QPel : No
Format settings, GMC : No warppoints
Format settings, Matrix : Custom
Codec ID : XVID
Codec ID/Hint : XviD
Duration : 1h 32mn
Bit rate : 1 663 Kbps
Width : 704 pixels
Height : 320 pixels
Display aspect ratio : 2.2:1
Frame rate : 25.000 fps
Color space : YUV
Chroma subsampling : 4:2:0
Bit depth : 8 bits
Scan type : Progressive
Compression mode : Lossy
Bits/(Pixel*Frame) : 0.295
Stream size : 1.07 GiB (89%)
Writing library : XviD 1.2.0.dev47 (UTC 2006-11-01)
Audio #1
ID : 1
Format : AC-3
Format/Info : Audio Coding 3
Mode extension : CM (complete main)
Format settings, Endianness : Big
Codec ID : 2000
Duration : 1h 32mn
Bit rate mode : Constant
Bit rate : 192 Kbps
Channel(s) : 2 channels
Channel positions : Front: L R
Sampling rate : 48.0 KHz
Bit depth : 16 bits
Compression mode : Lossy
Stream size : 127 MiB (10%)
Alignment : Split accross interleaves
Interleave, duration : 40 ms (1.00 video frame)
Interleave, preload duration : 500 ms
Language : Russian



Скачать Космические.дальнобойщики.Space.Truckers.(Стюарт.Гордон.Stuart.Gordon).[1996.фантастика.триллер.боевик.приключения.DVDRip].[AVO].(Ю.Сербин).torrent без регистрации
Золото ЗОЛОТАЯ РАЗДАЧА! СКАЧАННОЕ НЕ ЗАСЧИТЫВАЕТСЯ! Золото
Дата: Зарегистрирован   [ Тип: внутренний ] Как тут cкачать?
MAGNET ссылка
MAGNET ссылка


Скачать .torrent

13 KB

Статус: проверено DHT
Скачан: торрент - 136 раз, раздача полностью - 85 раз
Размер: 1,2 GB
Оценка:  5 (Голосов: 2)
Поблагодарили: 4
Поделиться ссылкой на эту раздачу с друзьями:
В контактеFacebookОдноклассникиTwitterLivejournalМой МирLiveinternet
 

 
Показать сообщения:    


Вы не можете начинать темы
Вы не можете отвечать на сообщения
Вы не можете редактировать свои сообщения
Вы не можете удалять свои сообщения
Вы не можете голосовать в опросах
Вы не можете прикреплять файлы к сообщениям
Вы можете скачивать файлы