Loading...
Error

/ V ( 1- ) ( , ) [2009, , , HDRip] [Dub] ()

 
5,82 GB   |    :  168
1  [  0 KB/s  ]  
 

leon030982

[] 

/ V / ( 1- )


: 2009
:
: ,
: ~ 00:45:00
: ( -)
:

: , ,

: , , , , , , , , ,

: . - , , , ... , ?


SAMPLE

: HDRip
: AVI
: XviD
: MP3
: 720x400 (1.80:1), 23.976 fps, XviD build 50 ~1200 kbps avg, 0.174 bit/pixel
: 48 kHz, MPEG Layer 3, 2 ch, ~192.00 kbps avg
: 48 kHz, MPEG Layer 3, 2 ch, ~192.00 kbps avg

:
: ()
: Taliy, , Allo-4ka,
: 5H1

:

General
Complete name : C:\Downloads\uTorrent\V Season 1 HDRip RUS DUB\V.s01e01.rus.eng.hdrip_filmgate.avi
Format : AVI
Format/Info : Audio Video Interleave
File size : 540 MiB
Duration : 47mn 12s
Overall bit rate : 1 598 Kbps
Writing application : VirtualDubMod 1.5.10.2 (build 2542/release)
Writing library : VirtualDubMod build 2542/release
Video
ID : 0
Format : MPEG-4 Visual
Format profile : Advanced Simple@L5
Format settings, BVOP : Yes
Format settings, QPel : No
Format settings, GMC : No warppoints
Format settings, Matrix : Default (MPEG)
Codec ID : XVID
Codec ID/Hint : XviD
Duration : 47mn 12s
Bit rate : 1 200 Kbps
Width : 720 pixels
Height : 400 pixels
Display aspect ratio : 16:9
Frame rate : 23.976 fps
Color space : YUV
Chroma subsampling : 4:2:0
Bit depth : 8 bits
Scan type : Progressive
Compression mode : Lossy
Bits/(Pixel*Frame) : 0.174
Stream size : 405 MiB (75%)
Writing library : XviD 1.2.1 (UTC 2008-12-04)
Audio #1
ID : 1
Format : MPEG Audio
Format version : Version 1
Format profile : Layer 3
Mode : Joint stereo
Codec ID : 55
Codec ID/Hint : MP3
Duration : 47mn 12s
Bit rate mode : Constant
Bit rate : 192 Kbps
Channel(s) : 2 channels
Sampling rate : 48.0 KHz
Compression mode : Lossy
Stream size : 64.8 MiB (12%)
Alignment : Aligned on interleaves
Interleave, duration : 42 ms (1.00 video frame)
Interleave, preload duration : 504 ms
Audio #2
ID : 2
Format : MPEG Audio
Format version : Version 1
Format profile : Layer 3
Mode : Joint stereo
Mode extension : MS Stereo
Codec ID : 55
Codec ID/Hint : MP3
Duration : 47mn 12s
Bit rate mode : Constant
Bit rate : 192 Kbps
Channel(s) : 2 channels
Sampling rate : 48.0 KHz
Compression mode : Lossy
Stream size : 64.8 MiB (12%)
Alignment : Aligned on interleaves
Interleave, duration : 42 ms (1.00 video frame)
Interleave, preload duration : 504 ms
Writing library : LAME3.96.1



.V.(.1-.).(...).[2009...HDRip].[Dub].().torrent
  ! ! 
:   [ : ] c?
MAGNET
MAGNET


.torrent

30 KB

: DHT
: - 168 , - 87
: 5,82 GB
5 (: 3)
: 7
:
 FacebookTwitterLivejournal Liveinternet
 

 
: