Loading...
Error

Скачать Капитан Крюк / Hook (Стивен Спилберг) [1991, фэнтези, комедия, приключения, семейный, BDRip-AVC] [MVO]+[Sub] торрент без регистрации

 
Статистика раздачи
Размер:  3,07 GB   |    Скачан:  110 раз
Сидов:  1  [  0 KB/s  ]  
 
Автор Сообщение

Marsianka

[] 

Год выпуска: 1991
Производство: США / Amblin Entertainment, TriStar Pictures
Жанр: фэнтези, комедия, приключения, семейный
Продолжительность: 02:21:45
Перевод: Профессиональный (многоголосый, закадровый)
Субтитры: Английские, русские |отключаемые|
Режиссер: Стивен Спилберг / Steven Spielberg

В ролях: Дастин Хоффман, Робин Уильямс, Джулия Робертс, Боб Хоскинс, Мэгги Смит, Кэролайн Гудолл, Чарли Корсмо, Эмбер Скотт, Лорел Кронин, Фил Коллинз

О фильме:
Питер Пэн стал взрослым и перестал быть Питером Пэном. Теперь ему сорок лет, у него другое имя, семья и серьезная работа. Не осталось и следа от чудесного ребенка, который когда-то умел летать... Но старые враги не забыли мальчика. Капитан с острым стальным крюком вместо руки снова бросает вызов своему противнику, похитив его детей. Питер отправляется вслед за ним в волшебную страну, но чтобы победить там, где живут русалки, феи и однорукие пираты, ему придется снова научиться летать.

Бюджет: $70 000 000

Качество: BDRip-AVC [BDRemux]
Формат: MKV
Видео: H.264, 1032x430 (2,40:1), 23,976 fps, 2335 Кbps, 0.219 bit/pixel
Аудио#1: 48 kHz, AC3 Dolby Digital, 3/2 (L,C,R,l,r) + LFE ch, 384.00 kbps | RUS
Аудио#2: 48 kHz, AC3 Dolby Digital, 3/2 (L,C,R,l,r) + LFE ch, 384.00 kbps | ENG

Автор рипа:
Общее
Уникальный идентификатор : 208518650238127911192098164174833446164 (0x9CDF3B32EAC12CF59B999431D7FDED14)
Полное имя : Kapitan.Krjuk.1991.D.BDRip.x264.potroks.mkv
Формат : Matroska
Версия формата : Version 4 / Version 2
Размер файла : 3,07 Гбайт
Продолжительность : 2 ч. 21 м.
Общий поток : 3104 Кбит/сек
Название фильма : -=POTROKS=-
Дата кодирования : UTC 2013-06-27 15:20:00
Программа кодирования : mkvmerge v5.9.0 ('On The Loose') built on Dec 15 2012 16:39:58
Библиотека кодирования : libebml v1.3.0 + libmatroska v1.4.0

Видео
Идентификатор : 1
Формат : AVC
Формат/Информация : Advanced Video Codec
Профиль формата : High@L4.1
Параметр CABAC формата : Да
Параметр ReFrames формата : 10 кадров
Идентификатор кодека : V_MPEG4/ISO/AVC
Продолжительность : 2 ч. 21 м.
Битрейт : 2335 Кбит/сек
Ширина : 1032 пикселя
Высота : 430 пикселей
Соотношение сторон : 2,40:1
Режим частоты кадров : Постоянный
Частота кадров : 23,976 кадра/сек
Цветовое пространство : YUV
Субдискретизация насыщенности : 4:2:0
Битовая глубина : 8 бит
Тип развёртки : Прогрессивная
Бит/(Пиксели*Кадры) : 0.219
Размер потока : 2,25 Гбайт (73%)
Заголовок : Hook
Библиотека кодирования : x264 core 125 r2208 d9d2288
Настройки программы : cabac=1 / ref=10 / deblock=1:-2:-2 / analyse=0x3:0x133 / me=umh / subme=11 / psy=1 / psy_rd=1.05:0.00 / mixed_ref=1 / me_range=48 / chroma_me=1 / trellis=2 / 8x8dct=1 / cqm=0 / deadzone=21,11 / fast_pskip=0 / chroma_qp_offset=-2 / threads=9 / lookahead_threads=1 / sliced_threads=0 / nr=0 / decimate=1 / interlaced=0 / bluray_compat=0 / constrained_intra=0 / bframes=11 / b_pyramid=2 / b_adapt=2 / b_bias=0 / direct=3 / weightb=1 / open_gop=0 / weightp=2 / keyint=240 / keyint_min=23 / scenecut=40 / intra_refresh=0 / rc_lookahead=150 / rc=2pass / mbtree=1 / bitrate=2335 / ratetol=1.0 / qcomp=0.70 / qpmin=0 / qpmax=69 / qpstep=4 / cplxblur=20.0 / qblur=0.5 / vbv_maxrate=20000 / vbv_bufsize=20000 / nal_hrd=none / ip_ratio=1.35 / aq=1:0.80
Язык : English
Default : Да
Forced : Нет

Аудио #1
Идентификатор : 2
Формат : AC-3
Формат/Информация : Audio Coding 3
Расширение режима : CM (complete main)
Параметр Endianness формата : Big
Идентификатор кодека : A_AC3
Продолжительность : 2 ч. 21 м.
Вид битрейта : Постоянный
Битрейт : 384 Кбит/сек
Каналы : 6 каналов
Расположение каналов : Front: L C R, Side: L R, LFE
Частота : 48,0 КГц
Битовая глубина : 16 бит
Метод сжатия : С потерями
Размер потока : 389 Мбайт (12%)
Заголовок : MVO | DD 5.1 @ 384 kbps - R5
Язык : Russian
Default : Да
Forced : Да

Аудио #2
Идентификатор : 3
Формат : AC-3
Формат/Информация : Audio Coding 3
Расширение режима : CM (complete main)
Параметр Endianness формата : Big
Идентификатор кодека : A_AC3
Продолжительность : 2 ч. 21 м.
Вид битрейта : Постоянный
Битрейт : 384 Кбит/сек
Каналы : 6 каналов
Расположение каналов : Front: L C R, Side: L R, LFE
Частота : 48,0 КГц
Битовая глубина : 16 бит
Метод сжатия : С потерями
Размер потока : 389 Мбайт (12%)
Заголовок : Original | DD 5.1 @ 384 kbps
Язык : English
Default : Нет
Forced : Нет

Текст #1
Идентификатор : 4
Формат : UTF-8
Идентификатор кодека : S_TEXT/UTF8
Идентификатор кодека/Информация : UTF-8 Plain Text
Язык : Russian
Default : Нет
Forced : Нет

Текст #2
Идентификатор : 5
Формат : UTF-8
Идентификатор кодека : S_TEXT/UTF8
Идентификатор кодека/Информация : UTF-8 Plain Text
Язык : English
Default : Нет
Forced : Нет
x264 [info]: frame I:1549 Avg QP:17.29 size: 71254
x264 [info]: frame P:44608 Avg QP:19.17 size: 25886
x264 [info]: frame B:157769 Avg QP:22.37 size: 7712
x264 [info]: consecutive B-frames: 1.6% 2.1% 6.9% 31.1% 17.5% 31.8% 3.8% 4.0% 0.6% 0.3% 0.1% 0.2%
x264 [info]: mb I I16..4: 5.2% 72.0% 22.9%
x264 [info]: mb P I16..4: 0.4% 8.0% 1.8% P16..4: 29.5% 36.2% 15.3% 3.2% 0.4% skip: 5.4%
x264 [info]: mb B I16..4: 0.0% 1.1% 0.2% B16..8: 35.9% 21.1% 3.8% direct: 4.8% skip:33.1% L0:39.0% L1:45.2% BI:15.7%
x264 [info]: 8x8 transform intra:77.3% inter:58.6%
x264 [info]: direct mvs spatial:98.9% temporal:1.1%
x264 [info]: coded y,uvDC,uvAC intra: 93.3% 88.9% 61.6% inter: 26.9% 20.6% 3.0%
x264 [info]: i16 v,h,dc,p: 32% 15% 8% 46%
x264 [info]: i8 v,h,dc,ddl,ddr,vr,hd,vl,hu: 7% 7% 3% 11% 17% 15% 15% 13% 12%
x264 [info]: i4 v,h,dc,ddl,ddr,vr,hd,vl,hu: 7% 7% 4% 9% 17% 15% 15% 12% 13%
x264 [info]: i8c dc,h,v,p: 40% 20% 19% 21%
x264 [info]: Weighted P-Frames: Y:5.8% UV:2.3%
x264 [info]: ref P L0: 47.2% 14.0% 17.3% 5.7% 4.7% 3.2% 3.0% 1.6% 1.6% 1.5% 0.2% 0.0%
x264 [info]: ref B L0: 82.6% 8.7% 3.4% 1.8% 1.2% 1.0% 0.8% 0.4% 0.2%
x264 [info]: ref B L1: 95.3% 4.7%
x264 [info]: kb/s:2334.27

x264 [total]: encoded 203926 frames, 7.40 fps, 2334.27 kb/s

TIME
------------------------------
Общее время кодирования: 20 hour 48 min 3 sec
Файл получился на: 2368.24 mb



Скачать Капитан.Крюк.Hook.(Стивен.Спилберг).[1991.фэнтези.комедия.приключения.семейный.BDRip-AVC].[MVO]+[Sub].torrent без регистрации
Золото ЗОЛОТАЯ РАЗДАЧА! СКАЧАННОЕ НЕ ЗАСЧИТЫВАЕТСЯ! Золото
Дата: Зарегистрирован   [ Тип: внутренний ] Как тут cкачать?
MAGNET ссылка
MAGNET ссылка


Скачать .torrent

16 KB

Статус: проверено DHT
Скачан: торрент - 110 раз, раздача полностью - 20 раз
Размер: 3,07 GB
Оценка:  5 (Голосов: 1)
Поблагодарили: 2
Поделиться ссылкой на эту раздачу с друзьями:
В контактеFacebookОдноклассникиTwitterLivejournalМой МирLiveinternet
 

 
Показать сообщения:    


Вы не можете начинать темы
Вы не можете отвечать на сообщения
Вы не можете редактировать свои сообщения
Вы не можете удалять свои сообщения
Вы не можете голосовать в опросах
Вы не можете прикреплять файлы к сообщениям
Вы можете скачивать файлы