Loading...
Error

Скачать Инопланетянин / E.T. the Extra-Terrestrial (Стивен Спилберг) [1982, фантастика, фэнтези, драма, приключения, семейный, BDRip-AVC] [Dub]+[Оригинал]+[Sub] торрент без регистрации

 
Статистика раздачи
Размер:  2,18 GB   |    Скачан:  119 раз
Сидов:  1  [  0 KB/s  ]  
 
Автор Сообщение

Marsianka

[] 

Инопланетянин / E.T. the Extra-Terrestrial

«The Story that Touched the World!»

Год выпуска: 1982 г.
Производство: США
Жанр: фантастика, фэнтези, драма, приключения, семейный
Продолжительность: 01:54:29
Перевод: Профессиональный (полное дублирование)
Оригинальный аудиопоток: Английский
Субтитры: Русские, английские

Режиссер: Стивен Спилберг / Steven Spielberg

В ролях: Генри Томас, Дрю Бэрримор, Ди Уоллес-Стоун, Питер Койот, Роберт МакНотон, К. Ч. Мартел, Шон Фрай, С. Томас Хауэлл, Эрика Элениак, Дэвид М. ОДелл

Инопланетянин, телом похожий на черепаху без панциря, а мордочкой одновременно на мопса и Альберта Эйнштейна, прилетел на землю с мирными намерениями в составе научно-исследовательской группы. Специалисты из NASA заметили приближение летающей тарелки и посчитали, что просто обязаны отловить хотя бы одну из инопланетных тварей.
Несчастные существа были вынуждены ретироваться настолько спешно, что забыли захватить одного из коллег. Земной мальчик Эллиот, а также его брат и сестра, которую играет семилетняя Дрю Бэрримор, преодолевая отвращение к неприятно выглядящей твари, спасают ее.




Релиз от:

Качество: BDRip-AVC
Формат: MKV
Видео: 1024x576, 23.976fps, 1961 Kbps, 0.139 bit/pixel
Аудио: AC3, 48.0 KHz, 6 ch, 384 Kbps - Rus / Eng
Format : Matroska
Format version : Version 2
File size : 2.18 GiB
Duration : 1h 54mn
Overall bit rate : 2 731 Kbps
Movie name : E.T. the Extra-Terrestrial (1982) - The Jolly Roger by Pirat.Ca [zyyx]
Encoded date : UTC 2012-10-25 16:29:30
Writing application : mkvmerge v4.9.1 ('Ich will') сборка от Aug 10 2011 09:31:20
Writing library : libebml v1.2.1 + libmatroska v1.2.0

Video
ID : 1
Format : AVC
Format/Info : Advanced Video Codec
Format profile : High@L4.1
Format settings, CABAC : Yes
Format settings, ReFrames : 16 frames
Codec ID : V_MPEG4/ISO/AVC
Duration : 1h 54mn
Bit rate : 1 961 Kbps
Width : 1 024 pixels
Height : 576 pixels
Display aspect ratio : 16:9
Frame rate : 23.976 fps
Color space : YUV
Chroma subsampling : 4:2:0
Bit depth : 8 bits
Scan type : Progressive
Bits/(Pixel*Frame) : 0.139
Stream size : 1.53 GiB (70%)
Title : JRG
Writing library : x264 core 116 r2074 2641b9e
Encoding settings : cabac=1 / ref=16 / deblock=1:-1:-1 / analyse=0x3:0x133 / me=umh / subme=11 / psy=1 / psy_rd=1.00:0.10 / mixed_ref=1 / me_range=64 / chroma_me=1 / trellis=2 / 8x8dct=1 / cqm=0 / deadzone=21,11 / fast_pskip=0 / chroma_qp_offset=-3 / threads=16 / sliced_threads=0 / nr=0 / decimate=1 / interlaced=0 / bluray_compat=0 / constrained_intra=0 / bframes=16 / b_pyramid=2 / b_adapt=2 / b_bias=0 / direct=3 / weightb=1 / open_gop=0 / weightp=2 / keyint=250 / keyint_min=23 / scenecut=40 / intra_refresh=0 / rc_lookahead=50 / rc=2pass / mbtree=1 / bitrate=1961 / ratetol=1.0 / qcomp=0.60 / qpmin=0 / qpmax=69 / qpstep=4 / cplxblur=20.0 / qblur=0.5 / ip_ratio=1.40 / aq=1:1.00
Language : English
Default : Yes
Forced : No

Audio #1
ID : 2
Format : AC-3
Format/Info : Audio Coding 3
Mode extension : CM (complete main)
Format settings, Endianness : Big
Codec ID : A_AC3
Duration : 1h 54mn
Bit rate mode : Constant
Bit rate : 384 Kbps
Channel(s) : 6 channels
Channel positions : Front: L C R, Side: L R, LFE
Sampling rate : 48.0 KHz
Bit depth : 16 bits
Compression mode : Lossy
Stream size : 314 MiB (14%)
Language : Russian
Default : Yes
Forced : No

Audio #2
ID : 3
Format : AC-3
Format/Info : Audio Coding 3
Mode extension : CM (complete main)
Format settings, Endianness : Big
Codec ID : A_AC3
Duration : 1h 54mn
Bit rate mode : Constant
Bit rate : 384 Kbps
Channel(s) : 6 channels
Channel positions : Front: L C R, Side: L R, LFE
Sampling rate : 48.0 KHz
Bit depth : 16 bits
Compression mode : Lossy
Stream size : 314 MiB (14%)
Language : English
Default : No
Forced : No

Text #1
ID : 4
Format : UTF-8
Codec ID : S_TEXT/UTF8
Codec ID/Info : UTF-8 Plain Text
Language : Russian
Default : Yes
Forced : No

Text #2
ID : 5
Format : UTF-8
Codec ID : S_TEXT/UTF8
Codec ID/Info : UTF-8 Plain Text
Language : English
Default : No
Forced : No



Скачать Инопланетянин.E.T.the.Extra-Terrestrial.(Стивен.Спилберг).[1982.фантастика.фэнтези.драма.приключения.семейный.BDRip-AVC].[Dub]+[Оригинал]+[Sub].torrent без регистрации
Золото ЗОЛОТАЯ РАЗДАЧА! СКАЧАННОЕ НЕ ЗАСЧИТЫВАЕТСЯ! Золото
Дата: Зарегистрирован   [ Тип: внутренний ] Как тут cкачать?
MAGNET ссылка
MAGNET ссылка


Скачать .torrent

11 KB

Статус: проверено DHT
Скачан: торрент - 119 раз, раздача полностью - 30 раз
Размер: 2,18 GB
Оценка:  5 (Голосов: 2)
Поблагодарили: 6
Поделиться ссылкой на эту раздачу с друзьями:
В контактеFacebookОдноклассникиTwitterLivejournalМой МирLiveinternet
 

 
Показать сообщения:    


Вы не можете начинать темы
Вы не можете отвечать на сообщения
Вы не можете редактировать свои сообщения
Вы не можете удалять свои сообщения
Вы не можете голосовать в опросах
Вы не можете прикреплять файлы к сообщениям
Вы можете скачивать файлы