Loading...
Error

Скачать Дни грома / Days of Thunder (Тони Скотт) [1990, мелодрама, драма, спорт, BDRip-AVC] [MVO]x2+[DVO]+[AVO]x2+[Sub] торрент без регистрации

 
Статистика раздачи
Размер:  3,87 GB   |    Скачан:  109 раз
Сидов:  1  [  0 KB/s  ]  
 
Автор Сообщение

Marsianka

[] 

Информация о фильме
Название: Дни грома
Оригинальное название: Days of Thunder
Год выхода: 1990
Жанр: мелодрама, драма, спорт
Режиссер: Тони Скотт
В ролях: Том Круз, Николь Кидман, Роберт Дювалл, Рэнди Куэйд, Кэри Элвис, Майкл Рукер, Фред Долтон Томпсон, Джон С. Райлли, Дж. К. Куин, Дон Симпсон, Кэролин Уильямс, Донна В. Скотт, Крис Эллис, Питер Эппел, Стивен Майкл Айерс, Майк Слэттери, Барбара Гэррик, Джералд Р. Молен, Таня Кольридж, Александра Белахойтис, Стив Бойд, Дэниэл Д. Гринвуд, Джим Гримшоу, Джеймс Мартин мл., Марго Мартиндейл, Майкл Берджесс, Джим Краузер, Джеймс Д. Хенсон, Шари Эллис, Лейлани Сарелл, Ксавьер Коронел

О фильме:
Гонщик Коул Трикл молод и мало кому известен, но он не боится скорости и на полном ходу может вписаться в самый крутой поворот. На гонках главным соперником Коула становится более опытный спортсмен Роуди Бернс. Но ни Коул, ни Роуди не доходят до финишной черты: происходит сильное столкновение, в результате которого соперники оказываются в одной больничной палате. Коул временно теряет зрение, и потому не может оценить красоту своегоокулиста, Клер Левики. Зрение быстро возвращается, но Клер предупреждает Коула, что ему нельзя возвращаться в опасный спорт до полного выздоровления. Раздосадованные отстранением от участия в соревновании, Роуди и Коул устраивают зрелищную гонку на инвалидных колясках по больничным коридорам. Эти двое найдут в себе силы вернуться на настоящую трассу, и один из них возьмет главный приз.



Страна: США
Студия: Don Simpson-Jerry Bruckheimer Films, Paramount Pictures
Продолжительность: 01:47:17
Перевод: Профессиональный (многоголосый закадровый), профессиональный (двухголосый закадровый), авторский (одноголосый закадровый)

Файл
Кодек: h.264
Качество: BDRip-AVC
Видео: 3242 Кбит/с, 1024x426, 23.976 кадр/с
1: Русский (АС3, 6 ch, 384 Кбит/с) Профессиональный многоголосый
2: Русский (АС3, 6 ch, 384 Кбит/с) Авторский одноголосый [Юрий Живов]
3: Английский (АС3, 6 ch, 384 Кбит/с)
Отдельно:
4: Русский (АС3, 6 ch, 384 Кбит/с) Профессиональный двухголосый [Superbit]
5: Русский (АС3, 2 ch, 192 Кбит/с) Профессиональный многоголосый [СТС]
6: Русский (АС3, 2 ch, 192 Кбит/с) Авторский одноголосый [Егор Хрусталев]

Субтитры: Русские, английские

Полное имя : Dni.groma.1990.ALL_AUDIO.mkv
Формат : Matroska
Версия формата : Version 4 / Version 2
Размер файла : 3,87 Гбайт
Продолжительность : 1 ч. 47 м.
Общий поток : 5165 Кбит/сек
Название фильма : Дни грома | Days of Thunder [1990] -=BDRip (AVC) by 0ptimus=-
Дата кодирования : UTC 2013-06-27 18:19:24
Программа кодирования : mkvmerge v6.1.0 ('Old Devil') built on Mar 2 2013 14:32:37
Библиотека кодирования : libebml v1.3.0 + libmatroska v1.4.0

Видео
Идентификатор : 1
Формат : AVC
Формат/Информация : Advanced Video Codec
Профиль формата : High@L4.1
Параметр CABAC формата : Да
Параметр ReFrames формата : 10 кадров
Идентификатор кодека : V_MPEG4/ISO/AVC
Продолжительность : 1 ч. 47 м.
Битрейт : 3242 Кбит/сек
Ширина : 1024 пикселя
Высота : 426 пикселей
Соотношение сторон : 2,40:1
Частота кадров : 23,976 кадра/сек
Цветовое пространство : YUV
Субдискретизация насыщенности : 4:2:0
Битовая глубина : 8 бит
Тип развёртки : Прогрессивная
Бит/(Пиксели*Кадры) : 0.310
Размер потока : 2,36 Гбайт (61%)
Заголовок : Rip by 0ptimus
Библиотека кодирования : x264 core 132 r2310 76a5c3a
Настройки программы : cabac=1 / ref=10 / deblock=1:-3:-3 / analyse=0x3:0x113 / me=umh / subme=11 / psy=1 / psy_rd=1.00:0.20 / mixed_ref=1 / me_range=48 / chroma_me=1 / trellis=2 / 8x8dct=1 / cqm=0 / deadzone=21,11 / fast_pskip=0 / chroma_qp_offset=-3 / threads=4 / lookahead_threads=1 / sliced_threads=0 / nr=0 / decimate=0 / interlaced=0 / bluray_compat=0 / constrained_intra=0 / bframes=9 / b_pyramid=2 / b_adapt=2 / b_bias=0 / direct=3 / weightb=1 / open_gop=0 / weightp=2 / keyint=240 / keyint_min=23 / scenecut=40 / intra_refresh=0 / rc_lookahead=40 / rc=2pass / mbtree=0 / bitrate=3242 / ratetol=1.0 / qcomp=0.60 / qpmin=0 / qpmax=69 / qpstep=4 / cplxblur=20.0 / qblur=0.5 / vbv_maxrate=50000 / vbv_bufsize=50000 / nal_hrd=none / ip_ratio=1.40 / pb_ratio=1.30 / aq=1:1.00
Язык : English

Аудио #1
Идентификатор : 2
Формат : AC-3
Формат/Информация : Audio Coding 3
Расширение режима : CM (complete main)
Идентификатор кодека : A_AC3
Продолжительность : 1 ч. 47 м.
Вид битрейта : Постоянный
Битрейт : 384 Кбит/сек
Каналы : 6 каналов
Расположение каналов : Front: L C R, Side: L R, LFE
Частота : 48,0 КГц
Битовая глубина : 16 бит
Метод сжатия : С потерями
Размер потока : 295 Мбайт (7%)
Заголовок : Многоголосый закадровый AC3 5.1 384 kbps
Язык : Russian

Аудио #2
Идентификатор : 3
Формат : AC-3
Формат/Информация : Audio Coding 3
Расширение режима : CM (complete main)
Идентификатор кодека : A_AC3
Продолжительность : 1 ч. 47 м.
Вид битрейта : Постоянный
Битрейт : 384 Кбит/сек
Каналы : 6 каналов
Расположение каналов : Front: L C R, Side: L R, LFE
Частота : 48,0 КГц
Битовая глубина : 16 бит
Метод сжатия : С потерями
Размер потока : 295 Мбайт (7%)
Заголовок : Авторский [Юрий Живов] AC3 5.1 384 kbps
Язык : Russian

Аудио #3
Идентификатор : 4
Формат : AC-3
Формат/Информация : Audio Coding 3
Расширение режима : CM (complete main)
Идентификатор кодека : A_AC3
Продолжительность : 1 ч. 47 м.
Вид битрейта : Постоянный
Битрейт : 384 Кбит/сек
Каналы : 6 каналов
Расположение каналов : Front: L C R, Side: L R, LFE
Частота : 48,0 КГц
Битовая глубина : 16 бит
Метод сжатия : С потерями
Размер потока : 295 Мбайт (7%)
Заголовок : AC3 5.1 384 kbps
Язык : English

Аудио #4
Идентификатор : 5
Формат : AC-3
Формат/Информация : Audio Coding 3
Расширение режима : CM (complete main)
Идентификатор кодека : A_AC3
Продолжительность : 1 ч. 47 м.
Вид битрейта : Постоянный
Битрейт : 384 Кбит/сек
Каналы : 6 каналов
Расположение каналов : Front: L C R, Side: L R, LFE
Частота : 48,0 КГц
Битовая глубина : 16 бит
Метод сжатия : С потерями
Размер потока : 295 Мбайт (7%)
Заголовок : Двухголосый закадровый [Superbit] AC3 5.1 384 kbps
Язык : Russian

Аудио #5
Идентификатор : 6
Формат : AC-3
Формат/Информация : Audio Coding 3
Расширение режима : CM (complete main)
Идентификатор кодека : A_AC3
Продолжительность : 1 ч. 47 м.
Вид битрейта : Постоянный
Битрейт : 192 Кбит/сек
Каналы : 2 канала
Расположение каналов : Front: L R
Частота : 48,0 КГц
Битовая глубина : 16 бит
Метод сжатия : С потерями
Размер потока : 147 Мбайт (4%)
Заголовок : Многоголосый закадровый [CTC] AC3 2.0 192 kbps
Язык : Russian

Аудио #6
Идентификатор : 7
Формат : AC-3
Формат/Информация : Audio Coding 3
Расширение режима : CM (complete main)
Идентификатор кодека : A_AC3
Продолжительность : 1 ч. 47 м.
Вид битрейта : Постоянный
Битрейт : 192 Кбит/сек
Каналы : 2 канала
Расположение каналов : Front: L R
Частота : 48,0 КГц
Битовая глубина : 16 бит
Метод сжатия : С потерями
Размер потока : 147 Мбайт (4%)
Заголовок : Авторский [Егор Хрусталев] AC3 2.0 192 kbps
Язык : Russian

Текст #1
Идентификатор : 8
Формат : UTF-8
Идентификатор кодека : S_TEXT/UTF8
Идентификатор кодека/Информация : UTF-8 Plain Text
Язык : Russian

Текст #2
Идентификатор : 9
Формат : UTF-8
Идентификатор кодека : S_TEXT/UTF8
Идентификатор кодека/Информация : UTF-8 Plain Text
Язык : English

Меню
00:00:00.000 : en:Opening Credits
00:03:39.886 : en:Build Me a Car
00:05:37.211 : en:The New Driver
00:12:52.146 : en:Building Perfection
00:14:36.542 : en:Rubbing Is Racing
00:18:28.148 : en:Trust in Each Other
00:24:50.113 : en:Special Tires
00:31:41.149 : en:Concealed Weapon
00:36:26.309 : en:When Worlds Collide
00:41:14.054 : en:Mistaken Identity
00:45:05.703 : en:Clearance Denied
00:51:03.518 : en:Car Trouble
00:53:33.251 : en:Attention Getter
00:56:15.747 : en:A Thorough Physical
01:01:39.112 : en:Confronting Reality
01:04:13.140 : en:Competitive Spirits
01:11:35.291 : en:Out of Control
01:15:22.976 : en:Drive My Car
01:20:37.290 : en:Last Chance
01:27:29.661 : en:Daytona
01:33:13.045 : en:Start Your Engines
01:38:40.497 : en:And the Winner Is...
01:43:11.018 : en:End Credits

--------------------------------------------------------------------
x264 [info]: frame I:1277 Avg QP:17.33 size: 70047
x264 [info]: frame P:34899 Avg QP:20.00 size: 30112
x264 [info]: frame B:118177 Avg QP:21.87 size: 12425
--------------------------------------------------------------------
Релиз от:



Скачать Дни.грома.Days.of.Thunder.(Тони.Скотт).[1990.мелодрама.драма.спорт.BDRip-AVC].[MVO]x2+[DVO]+[AVO]x2+[Sub].torrent без регистрации
Золото ЗОЛОТАЯ РАЗДАЧА! СКАЧАННОЕ НЕ ЗАСЧИТЫВАЕТСЯ! Золото
Дата: Зарегистрирован   [ Тип: внутренний ] Как тут cкачать?
MAGNET ссылка
MAGNET ссылка


Скачать .torrent

20 KB

Статус: проверено DHT
Скачан: торрент - 109 раз, раздача полностью - 33 раз
Размер: 3,87 GB
Оценка:  5 (Голосов: 1)
Поблагодарили: 3
Поделиться ссылкой на эту раздачу с друзьями:
В контактеFacebookОдноклассникиTwitterLivejournalМой МирLiveinternet
 

 
Показать сообщения:    


Вы не можете начинать темы
Вы не можете отвечать на сообщения
Вы не можете редактировать свои сообщения
Вы не можете удалять свои сообщения
Вы не можете голосовать в опросах
Вы не можете прикреплять файлы к сообщениям
Вы можете скачивать файлы