Loading...
Error

Скачать Прикуп / The Take (TV Mini-Series) (Дэвид Друри) [2009, драма, криминал, триллер, BDRip] [720p] [AVO (Ю.Сербин)] торрент без регистрации

 
Статистика раздачи
Размер:  9,7 GB   |    Скачан:  145 раз
Сидов:  1  [  0 KB/s  ]  
 
Автор Сообщение

МихаНЕзатор

[] 

Информация о фильме
Название: Прикуп
Оригинальное название: The Take
Год выхода: 2009
Жанр: Драма, криминал, триллер
Режиссер: Дэвид Друри

В ролях: Шон Эванс, Том Харди, Шарлотта Райли, Кирстон Вэрэйнг, Марго Лейкестер, Брайан Кокс, Джейн Вуд, Стив Николсон, Джон Эштон, Меган Джосса Аннетт Келли, Сара Стюарт, Макдара Джойс, Сэмми Уильямс, Дженни Кэвэна, Сэм Винчент, Николас Дэй, Гари Мерфи, Марк Хубермэн, Элли ОКейн ОРейли, Дэвид Скофилд, Эмма Пайк, Джэми МакКенна, Хейли Уордл, Имон Джехеган, Дебора Вайсман, Стефен ДАрси, Эммет Кирван, Челси ОТул, Ниам Шоу, Дин Бардини, Рита Эвелин Смит, Марк Фиш

О фильме:
Фредди Джексон только что вышел из тюрьмы. Он отсидел срок, наладил нужные связи и теперь готов вместе со своим преданным кузеном Джимми бросить вызов всему миру, не останавливаясь ни перед кем и ни перед чем.



Страна: Великобритания
Студия: Company Pictures, Element Pictures, Irish Film Board
Продолжительность: 02:53:05
Перевод: Авторский одноголосый закадровый, Ю.Сербин

Файл
Кодек: x264
Качество: BDRip 720p
Видео: 5000 Кбит/с, 1280x720, 25 кадр/с
Звук:
Аудио#1: Russian: 48 kHz, DTS, 3/2 (L,C,R,l,r) + LFE ch, ~1536.00 kbps avg |Одноголосый закадровый, Ю.Сербин|
Аудио#2: English: 48 kHz, DTS, 3/2 (L,C,R,l,r) + LFE ch, ~1536.00 kbps avg
Субтитры: Russian
Сохранены оригинальные чаптеры как на Blu-ray.
Перевод Юрия Сербина выполнен в рамках сервиса от HDCLUB "Озвучивание". Спонсоры: markinscor, tsar_obezian, sybir, Platov, Dervish, HPotter, olegsoleg, Loki1982, Faulenzer, denismgn1987, xerman13, tide, Pro_Rock_, Luka69, zeleniy, ochkarik1, oleg1980.

Общее
Уникальный идентификатор : 211883800702130096857290966010344269017 (0x9F6755ED2D439BDEB95AD310440C64D9)
Полное имя : The.Take.2009.720p.BluRay.Rus.Eng.HDCLUB.mkv
Формат : Matroska
Версия формата : Version 2
Размер файла : 9,70 Гбайт
Продолжительность : 2 ч. 53 м.
Общий поток : 8021 Кбит/сек
Название фильма : The Take (2009) - Release for HDCLUB
Дата кодирования : UTC 2013-06-27 07:58:02
Программа кодирования : mkvmerge v5.8.0 ('No Sleep / Pillow') built on Sep 2 2012 15:37:04
Библиотека кодирования : libebml v1.2.3 + libmatroska v1.3.0

Видео
Идентификатор : 1
Формат : AVC
Формат/Информация : Advanced Video Codec
Профиль формата : High@L4.1
Параметр CABAC формата : Да
Параметр ReFrames формата : 9 кадров
Идентификатор кодека : V_MPEG4/ISO/AVC
Продолжительность : 2 ч. 53 м.
Битрейт : 5000 Кбит/сек
Ширина : 1280 пикселей
Высота : 720 пикселей
Соотношение сторон : 16:9
Режим частоты кадров : Постоянный
Частота кадров : 25,000 кадров/сек
Цветовое пространство : YUV
Субдискретизация насыщенности : 4:2:0
Битовая глубина : 8 бит
Тип развёртки : Прогрессивная
Бит/(Пиксели*Кадры) : 0.217
Размер потока : 5,85 Гбайт (60%)
Заголовок : Release for HDCLUB
Библиотека кодирования : x264 core 124 r2197 69a0443
Настройки программы : cabac=1 / ref=9 / deblock=1:-3:-3 / analyse=0x3:0x113 / me=umh / subme=11 / psy=1 / psy_rd=1.10:0.00 / mixed_ref=1 / me_range=32 / chroma_me=1 / trellis=2 / 8x8dct=1 / cqm=0 / deadzone=21,11 / fast_pskip=0 / chroma_qp_offset=-2 / threads=18 / sliced_threads=0 / nr=0 / decimate=0 / interlaced=0 / bluray_compat=0 / constrained_intra=0 / bframes=8 / b_pyramid=2 / b_adapt=2 / b_bias=0 / direct=3 / weightb=1 / open_gop=0 / weightp=2 / keyint=240 / keyint_min=24 / scenecut=40 / intra_refresh=0 / rc_lookahead=240 / rc=2pass / mbtree=1 / bitrate=5000 / ratetol=1.0 / qcomp=0.70 / qpmin=0 / qpmax=69 / qpstep=4 / cplxblur=20.0 / qblur=0.5 / ip_ratio=1.40 / aq=1:1.00
Язык : English
Default : Да
Forced : Нет

Аудио #1
Идентификатор : 2
Формат : DTS
Формат/Информация : Digital Theater Systems
Режим : 16
Параметр Endianness формата : Big
Идентификатор кодека : A_DTS
Продолжительность : 2 ч. 53 м.
Вид битрейта : Постоянный
Битрейт : 1509 Кбит/сек
Каналы : 6 каналов
Расположение каналов : Front: L C R, Side: L R, LFE
Частота : 48,0 КГц
Битовая глубина : 16 бит
Метод сжатия : С потерями
Размер потока : 1,82 Гбайт (19%)
Заголовок : DTS 5.1 @ 1.5 Mbps Одноголосый закадровый (Ю.Сербин)
Язык : Russian
Default : Да
Forced : Нет

Аудио #2
Идентификатор : 3
Формат : DTS
Формат/Информация : Digital Theater Systems
Режим : 16
Параметр Endianness формата : Big
Идентификатор кодека : A_DTS
Продолжительность : 2 ч. 53 м.
Вид битрейта : Постоянный
Битрейт : 1509 Кбит/сек
Каналы : 6 каналов
Расположение каналов : Front: L C R, Side: L R, LFE
Частота : 48,0 КГц
Битовая глубина : 16 бит
Метод сжатия : С потерями
Размер потока : 1,82 Гбайт (19%)
Заголовок : DTS 5.1 @ 1.5 Mbps
Язык : English
Default : Нет
Forced : Нет

Текст
Идентификатор : 4
Формат : UTF-8
Идентификатор кодека : S_TEXT/UTF8
Идентификатор кодека/Информация : UTF-8 Plain Text
Язык : Russian
Default : Нет
Forced : Нет

Меню
00:00:00.000 : en:00:00:00.000
00:13:57.040 : en:00:13:57.040
00:28:26.280 : en:00:28:26.280
00:41:09.040 : en:00:41:09.040
00:55:00.400 : en:00:55:00.400
01:10:10.680 : en:01:10:10.680
01:25:50.320 : en:01:25:50.320
01:36:07.280 : en:01:36:07.280
01:51:21.680 : en:01:51:21.680
02:08:08.680 : en:02:08:08.680
02:23:33.560 : en:02:23:33.560
02:39:44.120 : en:02:39:44.120



Скачать Прикуп.The.Take.(TV.Mini-Series).(Дэвид.Друри).[2009.драма.криминал.триллер.BDRip].[720p].[AVO.(Ю.Сербин)].torrent без регистрации
Золото ЗОЛОТАЯ РАЗДАЧА! СКАЧАННОЕ НЕ ЗАСЧИТЫВАЕТСЯ! Золото
Дата: Зарегистрирован   [ Тип: внутренний ] Как тут cкачать?
MAGNET ссылка
MAGNET ссылка


Скачать .torrent

25 KB

Статус: проверено DHT
Скачан: торрент - 145 раз, раздача полностью - 82 раз
Размер: 9,7 GB
Оценка:  - (Голосов: 0)
Поблагодарили: 3
Поделиться ссылкой на эту раздачу с друзьями:
В контактеFacebookОдноклассникиTwitterLivejournalМой МирLiveinternet
 

 
Показать сообщения:    


Вы не можете начинать темы
Вы не можете отвечать на сообщения
Вы не можете редактировать свои сообщения
Вы не можете удалять свои сообщения
Вы не можете голосовать в опросах
Вы не можете прикреплять файлы к сообщениям
Вы можете скачивать файлы