Loading...
Error

Скачать Папе снова 17 / 17 Again (Барр Стирс) [2009, фэнтези, комедия, мелодрама, драма, BDRip-AVC] [Dub]+[Original] торрент без регистрации

 
Статистика раздачи
Размер:  2,18 GB   |    Скачан:  143 раза

Полного источника не было: 20 минут

 
Автор Сообщение

МихаНЕзатор

[] 

Папе снова 17 / 17 Again
(2009)
BDRip-AVC от HQCLUB




Информация о фильме:
Название: Папе снова 17
Оригинальное название: 17 Again
Год выхода: 2009
Жанр: фэнтези, комедия, мелодрама, драма
Режиссер: Барр Стирс

В ролях: Зак Эфрон, Лесли Манн, Томас Леннон, Мэттью Перри, Тайлер Стилман, Эллисон Миллер, Стерлинг Найт, Мишель Трахтенберг, Адам Грегори, Хантер Пэрриш

О фильме:
Вы хотели бы начать жизнь сначала? Отец двоих детей Майк О`Доннелл хотел бы. И вот внезапно ему выпадает волшебный шанс вернуться в родную школу Хэйден Хай. Теперь Майк звезда баскетбольной команды, мечта девчонок и одноклассник собственных отпрысков, превратившийся из нерадивого папаши в отличного друга.

«Кто сказал, что молодость уходит?»

Релиз от -
Автор рипа: MOSFET

Выпущено: США, Offspring Entertainment
Продолжительность: 01:41:55
Перевод: Профессиональный (полное дублирование) + Оригинальная звуковая дорожка
Субтитры: Русские (надписи и пр.), русские, украинские, английские (внешние, srt*) (*.srt, отключаемые)

ЦитатаКто-то писал:Сохранены оригинальные чаптеры как на Blu-ray.

Файл:
Формат: MKV
Качество: BDRip-AVC (источник: -DaRkY- / Blu-Ray Remux / 1080p)
Видео: 1024x426 (2,40:1), 23.976 fps, x264@L4.1, 2pass, ~2168 kbps avg, 0.21 bit/pixel
Аудио #1: 48 kHz, AC3, 3/2 (L,C,R,l,r) + LFE ch, ~448.00 kbps avg (RUS)
Аудио #2: 48 kHz, AC3, 3/2 (L,C,R,l,r) + LFE ch, ~448.00 kbps avg (ENG)
Размер: 2234,09 MB (1/2 DVD)

Полное имя : Pape.snova.17.2009.DUAL.BDRip-AVC.x264.AC3.-HQCLUB.mkv
Формат : Matroska
Версия формата : Version 4 / Version 2
Размер файла : 2,18 Гбайт
Продолжительность : 1 ч. 41 м.
Общий поток : 3064 Кбит/сек
Дата кодирования : UTC 2013-06-28 12:57:31
Программа кодирования : mkvmerge v6.3.0 ('You can't stop me!') built on Jun 27 2013 22:06:07
Библиотека кодирования : libebml v1.3.0 + libmatroska v1.4.0

Видео
Идентификатор : 1
Формат : AVC
Формат/Информация : Advanced Video Codec
Профиль формата : High@L4.1
Параметр CABAC формата : Да
Параметр ReFrames формата : 10 кадров
Идентификатор кодека : V_MPEG4/ISO/AVC
Продолжительность : 1 ч. 41 м.
Битрейт : 2168 Кбит/сек
Ширина : 1024 пикселя
Высота : 426 пикселей
Соотношение сторон : 2,40:1
Режим частоты кадров : Постоянный
Частота кадров : 23,976 кадра/сек
Цветовое пространство : YUV
Субдискретизация насыщенности : 4:2:0
Битовая глубина : 8 бит
Тип развёртки : Прогрессивная
Бит/(Пиксели*Кадры) : 0.207
Размер потока : 1,50 Гбайт (69%)
Заголовок : Папе снова 17 / 17 Again (2009) BDRip-AVC by MOSFET | HQCLUB.NET
Библиотека кодирования : x264 core 133 r2334 a3ac64b
Настройки программы : cabac=1 / ref=10 / deblock=1:-2:-1 / analyse=0x3:0x113 / me=esa / subme=10 / psy=1 / psy_rd=1.00:0.00 / mixed_ref=1 / me_range=64 / chroma_me=1 / trellis=2 / 8x8dct=1 / cqm=0 / deadzone=21,11 / fast_pskip=0 / chroma_qp_offset=-2 / threads=12 / lookahead_threads=3 / sliced_threads=0 / nr=0 / decimate=1 / interlaced=0 / bluray_compat=0 / constrained_intra=0 / bframes=10 / b_pyramid=2 / b_adapt=2 / b_bias=0 / direct=3 / weightb=1 / open_gop=0 / weightp=2 / keyint=240 / keyint_min=23 / scenecut=40 / intra_refresh=0 / rc_lookahead=50 / rc=2pass / mbtree=1 / bitrate=2168 / ratetol=1.0 / qcomp=0.70 / qpmin=0 / qpmax=69 / qpstep=4 / cplxblur=20.0 / qblur=0.5 / vbv_maxrate=50000 / vbv_bufsize=62500 / nal_hrd=none / ip_ratio=1.40 / aq=1:0.80
Язык : English
Default : Да
Forced : Нет

Аудио #1
Идентификатор : 2
Формат : AC-3
Формат/Информация : Audio Coding 3
Расширение режима : CM (complete main)
Параметр Endianness формата : Big
Идентификатор кодека : A_AC3
Продолжительность : 1 ч. 41 м.
Вид битрейта : Постоянный
Битрейт : 448 Кбит/сек
Каналы : 6 каналов
Расположение каналов : Front: L C R, Side: L R, LFE
Частота : 48,0 КГц
Битовая глубина : 16 бит
Метод сжатия : С потерями
Размер потока : 327 Мбайт (15%)
Заголовок : Профессиональный (полное дублирование)
Язык : Russian
Default : Да
Forced : Нет

Аудио #2
Идентификатор : 3
Формат : AC-3
Формат/Информация : Audio Coding 3
Расширение режима : CM (complete main)
Параметр Endianness формата : Big
Идентификатор кодека : A_AC3
Продолжительность : 1 ч. 41 м.
Вид битрейта : Постоянный
Битрейт : 448 Кбит/сек
Каналы : 6 каналов
Расположение каналов : Front: L C R, Side: L R, LFE
Частота : 48,0 КГц
Битовая глубина : 16 бит
Метод сжатия : С потерями
Размер потока : 327 Мбайт (15%)
Заголовок : Оригинальная звуковая дорожка
Язык : English
Default : Нет
Forced : Нет

Текст #1
Идентификатор : 4
Формат : UTF-8
Идентификатор кодека : S_TEXT/UTF8
Идентификатор кодека/Информация : UTF-8 Plain Text
Заголовок : Русские (надписи и пр.)
Язык : Russian
Default : Да
Forced : Нет

Текст #2
Идентификатор : 5
Формат : UTF-8
Идентификатор кодека : S_TEXT/UTF8
Идентификатор кодека/Информация : UTF-8 Plain Text
Заголовок : Русские (полные)
Язык : Russian
Default : Нет
Forced : Нет

Текст #3
Идентификатор : 6
Формат : UTF-8
Идентификатор кодека : S_TEXT/UTF8
Идентификатор кодека/Информация : UTF-8 Plain Text
Заголовок : Украинские (полные)
Язык : Ukrainian
Default : Нет
Forced : Нет

Текст #4
Идентификатор : 7
Формат : UTF-8
Идентификатор кодека : S_TEXT/UTF8
Идентификатор кодека/Информация : UTF-8 Plain Text
Заголовок : Английские (полные)
Язык : English
Default : Нет
Forced : Нет

Меню
00:00:00.000 : :His Big Night
00:06:42.985 : :Mostly Negative
00:10:06.772 : :Nice Chatting with You
00:16:30.072 : :Transformation
00:18:24.228 : :Not-So-Mortal Combat
00:22:41.068 : :This Is My Chance
00:25:43.833 : :Registration
00:29:37.692 : :Cool to Delicious
00:33:28.214 : :Men's Room Rescue
00:36:00.992 : :Bully Ball
00:40:16.622 : :Distracting Resemblance
00:44:41.345 : :Fighting and Peacocking
00:49:22.084 : :Horning In
00:53:09.102 : :Dance with Alex's Mom
00:58:35.011 : :Afire with Fatherly Ire
01:03:51.118 : :Successful Shots
01:07:36.802 : :A Magnet to Maggie
01:10:27.473 : :Your Lair or Mine?
01:16:16.697 : :Party's Over
01:20:28.657 : :Letter From the Heart
01:26:47.952 : :Big Night Redux
01:30:55.825 : :Best Decision
01:34:44.804 : :Don't Blow It
01:35:28.389 : :End Credits
x264 [info]: frame I:1590 Avg QP:16.75 size: 74194
x264 [info]: frame P:33491 Avg QP:20.04 size: 22242
x264 [info]: frame B:111537 Avg QP:22.67 size: 7108

x264 [info]: consecutive B-frames: 2.9% 3.0% 7.1% 30.0% 14.1% 35.2% 3.2% 2.0% 0.8% 1.1% 0.6%

x264 [info]: ref P L0: 48.1% 11.6% 16.9% 6.0% 5.2% 3.6% 3.1% 1.7% 1.8% 1.7% 0.2% 0.0%
x264 [info]: ref B L0: 74.7% 11.2% 5.3% 2.7% 2.3% 1.6% 1.3% 0.6% 0.4%
x264 [info]: ref B L1: 92.6% 7.4%



Скачать Папе.снова.17.17.Again.(Барр.Стирс).[2009.фэнтези.комедия.мелодрама.драма.BDRip-AVC].[Dub]+[Original].torrent без регистрации
Золото ЗОЛОТАЯ РАЗДАЧА! СКАЧАННОЕ НЕ ЗАСЧИТЫВАЕТСЯ! Золото
Дата: Зарегистрирован   [ Тип: внутренний ] Как тут cкачать?
MAGNET ссылка
MAGNET ссылка


Скачать .torrent

12 KB

Статус: проверено DHT
Скачан: торрент - 143 раз, раздача полностью - 289 раз
Размер: 2,18 GB
Оценка:  5 (Голосов: 1)
Поблагодарили: 4
Поделиться ссылкой на эту раздачу с друзьями:
В контактеFacebookОдноклассникиTwitterLivejournalМой МирLiveinternet
 

 

niko1995

[] 

Офигенный фильм есть и юмор и поучительность классный советую посмотреть
 
Показать сообщения:    


Вы не можете начинать темы
Вы не можете отвечать на сообщения
Вы не можете редактировать свои сообщения
Вы не можете удалять свои сообщения
Вы не можете голосовать в опросах
Вы не можете прикреплять файлы к сообщениям
Вы можете скачивать файлы