Loading...
Error

Скачать Отряд спасения / Rogue force (Мартин Кунерт) [1998, боевик, DVDRip] [MVO]+[DVO]+[AVO]+[Оригинал] торрент без регистрации

 
Статистика раздачи
Размер:  1,55 GB   |    Скачан:  146 раз
Сидов:  1  [  0 KB/s  ]  
 
Автор Сообщение

Marsianka

[] 

Страна: США
Производство: Triple Peak Productions
Жанр: боевик
Год выпуска: 1998

Продолжительность: 01:29:29

Перевод Профессиональный многоголосый, профессиональный двухголосый, авторский

Оригинальная аудиодорожка: Английская

Cубтитры: Нет

Режиссер: Мартин Кунерт

В ролях: Майкл Рукер, Роберт Патрик, Дайэн Ди Лассио, Луис Мэндилор, Джеймс Кисики, Дарнелл Сеттлз, Чарльз Браун, Джефф Бланчард, Берт Матиас

Описание: В Нью Йорке с хирургической точностью уничтожаются могущественные, неподвластные закону мафиозные группировки. Неизвестные убийцы сметают огнем бандитские притоны и подпольные базы, не оставляя в живых никого. Спецагенту ФБР Мэтту Куперу и полицейскому детективу Хелен Симмс поручено разобраться, кто стоит у руля этой мощной машины возмездия. Сыщики выясняют, что команда карателей состоит из бойцов полицейского отряда особого назначения, разочаровавшихся в системе правосудия и возложивших на себя миссию исполнять волю народа. Чтобы обезвредить несокрушимый «отряд спасения», Мэтт призывает на помощь отряд штурмовиков ФБР. Теперь друг другу противостоят два элитных подразделения профессионалов: одинаково хорошо вооруженные, одинаково хорошо подготовленные, преследующие одну цель но стоящие по разные стороны закона



Исходник: DVD5 R5

Тип релиза: DVDRip

Контейнер: AVI

Видео: 704x528 (1.33:1), 23.976 fps, XviD ~1480 kbps avg, 0.17 bit/pixel
Аудио: #1: 48 kHz, AC3 2.0 ~192.00 kbps avg (RUS)
Аудио: #2: 48 kHz, AC3 2.0 ~192.00 kbps avg (RUS)
Аудио: #3: 48 kHz, AC3 2.0 ~192.00 kbps avg (RUS)
Аудио: #4: 48 kHz, AC3 2.0 ~192.00 kbps avg (RUS)
Аудио: #5: 48 kHz, AC3 2.0 ~192.00 kbps avg (ENG)
Общее
Полное имя : D:1АААОтряд спасения.avi
Формат : AVI
Формат/Информация : Audio Video Interleave
Размер файла : 1,55 Гбайт
Продолжительность : 1 ч. 29 м.
Общий поток : 2471 Кбит/сек
Программа кодирования : VirtualDubMod 1.5.10.2 (build 2540/release)
Библиотека кодирования : VirtualDubMod build 2540/release

Видео
Идентификатор : 0
Формат : MPEG-4 Visual
Профиль формата : Advanced Simple@L5
Параметр BVOP формата : 2
Параметр QPel формата : Нет
Параметр GMC формата : Без точки перехода
Параметр матрицы формата : Default (MPEG)
Режим смешивания : Сжатый битовый поток
Идентификатор кодека : XVID
Идентификатор кодека/Подсказка : XviD
Продолжительность : 1 ч. 29 м.
Битрейт : 1482 Кбит/сек
Ширина : 704 пикселя
Высота : 528 пикселей
Соотношение сторон : 4:3
Частота кадров : 23,976 кадра/сек
Цветовое пространство : YUV
Субдискретизация насыщенности : 4:2:0
Битовая глубина : 8 бит
Тип развёртки : Прогрессивная
Метод сжатия : С потерями
Бит/(Пиксели*Кадры) : 0.166
Размер потока : 950 Мбайт (60%)
Библиотека кодирования : XviD 1.2.1 (UTC 2008-12-04)

Аудио #1
Идентификатор : 1
Формат : AC-3
Формат/Информация : Audio Coding 3
Расширение режима : CM (complete main)
Параметр Endianness формата : Big
Идентификатор кодека : 2000
Продолжительность : 1 ч. 29 м.
Вид битрейта : Постоянный
Битрейт : 192 Кбит/сек
Каналы : 2 канала
Расположение каналов : Front: L R
Частота : 48,0 КГц
Битовая глубина : 16 бит
Метод сжатия : С потерями
Размер потока : 123 Мбайт (8%)
Выравнивание : Разделение по промежуткам
Продолжительность промежутка : 42 мс. (1,00 видеокадр)
Время предзагрузки промежутка : 500 мс.

Аудио #2
Идентификатор : 2
Формат : AC-3
Формат/Информация : Audio Coding 3
Расширение режима : CM (complete main)
Параметр Endianness формата : Big
Идентификатор кодека : 2000
Продолжительность : 1 ч. 29 м.
Вид битрейта : Постоянный
Битрейт : 192 Кбит/сек
Каналы : 2 канала
Расположение каналов : Front: L R
Частота : 48,0 КГц
Битовая глубина : 16 бит
Метод сжатия : С потерями
Размер потока : 123 Мбайт (8%)
Выравнивание : Разделение по промежуткам
Продолжительность промежутка : 42 мс. (1,00 видеокадр)
Время предзагрузки промежутка : 500 мс.

Аудио #3
Идентификатор : 3
Формат : AC-3
Формат/Информация : Audio Coding 3
Расширение режима : CM (complete main)
Параметр Endianness формата : Big
Идентификатор кодека : 2000
Продолжительность : 1 ч. 29 м.
Вид битрейта : Постоянный
Битрейт : 192 Кбит/сек
Каналы : 2 канала
Расположение каналов : Front: L R
Частота : 48,0 КГц
Битовая глубина : 16 бит
Метод сжатия : С потерями
Размер потока : 123 Мбайт (8%)
Выравнивание : Разделение по промежуткам
Продолжительность промежутка : 42 мс. (1,00 видеокадр)
Время предзагрузки промежутка : 500 мс.

Аудио #4
Идентификатор : 4
Формат : AC-3
Формат/Информация : Audio Coding 3
Расширение режима : CM (complete main)
Параметр Endianness формата : Big
Идентификатор кодека : 2000
Продолжительность : 1 ч. 29 м.
Вид битрейта : Постоянный
Битрейт : 192 Кбит/сек
Каналы : 2 канала
Расположение каналов : Front: L R
Частота : 48,0 КГц
Битовая глубина : 16 бит
Метод сжатия : С потерями
Размер потока : 123 Мбайт (8%)
Выравнивание : Разделение по промежуткам
Продолжительность промежутка : 42 мс. (1,00 видеокадр)
Время предзагрузки промежутка : 500 мс.

Аудио #5
Идентификатор : 5
Формат : AC-3
Формат/Информация : Audio Coding 3
Расширение режима : CM (complete main)
Параметр Endianness формата : Big
Идентификатор кодека : 2000
Продолжительность : 1 ч. 29 м.
Вид битрейта : Постоянный
Битрейт : 192 Кбит/сек
Каналы : 2 канала
Расположение каналов : Front: L R
Частота : 48,0 КГц
Битовая глубина : 16 бит
Метод сжатия : С потерями
Размер потока : 123 Мбайт (8%)
Выравнивание : Разделение по промежуткам
Продолжительность промежутка : 42 мс. (1,00 видеокадр)
Время предзагрузки промежутка : 500 мс.
Релиз группа:

Релиз:



Скачать Отряд.спасения.Rogue.force.(Мартин.Кунерт).[1998.боевик.DVDRip].[MVO]+[DVO]+[AVO]+[Оригинал].torrent без регистрации
Золото ЗОЛОТАЯ РАЗДАЧА! СКАЧАННОЕ НЕ ЗАСЧИТЫВАЕТСЯ! Золото
Дата: Зарегистрирован   [ Тип: внутренний ] Как тут cкачать?
MAGNET ссылка
MAGNET ссылка


Скачать .torrent

16 KB

Статус: проверено DHT
Скачан: торрент - 146 раз, раздача полностью - 35 раз
Размер: 1,55 GB
Оценка:  - (Голосов: 0)
Поблагодарили: 3
Поделиться ссылкой на эту раздачу с друзьями:
В контактеFacebookОдноклассникиTwitterLivejournalМой МирLiveinternet
 

 
Показать сообщения:    


Вы не можете начинать темы
Вы не можете отвечать на сообщения
Вы не можете редактировать свои сообщения
Вы не можете удалять свои сообщения
Вы не можете голосовать в опросах
Вы не можете прикреплять файлы к сообщениям
Вы можете скачивать файлы