Loading...
Error

Скачать Плакса / Cry-Baby (Джон Уотерс / John Waters) [1990, комедия, мелодрама, мюзикл, BDRip] 2x[MVO] (Rus, Ukr) + Original Eng торрент без регистрации

 
Статистика раздачи
Размер:  1,53 GB   |    Скачан:  5386 раз

Полного источника не было: 25 минут

 
Автор Сообщение

leon030982

[] 

Плакса / Cry-Baby



Год выпуска: 1990
Страна: США
Жанр: комедия, мелодрама, мюзикл
Продолжительность: 01:24:51
Перевод 1: Профессиональный (многоголосый закадровый)
Перевод 2: Профессиональный (многоголосый закадровый) [Украинский]
Cубтитры: нет

Режиссер: Джон Уотерс / John Waters

В ролях: Джонни Депп, Трэйси Лордс, Эми Локэйн, Сьюзан Тиррелл, Игги Поп, Уиллем Дефо, Джо Даллесандро, Полли Берген, Рикки Лэйк

Описание: Балтимор, 1954-й год. В стильного Уэйда Уокера влюблены все девочки его школы. Конечно, ведь он красив, знает толк в автогонках и рок-н-ролле. Плюс его потрясающая способность ронять одну единственную слезу, за, что друзья Уэйда прозвали Плаксой. А то, что Уокер хулиган пугает не его подружку красавицу Эллисон, а её чопорную бабушку.


Качество видео: BDRip
Формат видео: AVI
Видео кодек: XviD
Аудио кодек: MP3, AC3
Видео: 704x384 (1.83:1), 23.976 fps, XviD build 64 ~2050 kbps avg, 0.32 bit/pixel
Аудио 1: 48 kHz, MPEG Layer 3, 2 ch, ~128.00 kbps avg [RUS]
Аудио 2: 48 kHz, AC3 Dolby Digital, 2/0 (L,R) ch, ~192.00 kbps avg [UKR]
Аудио 3: 48 kHz, AC3 Dolby Digital, 2/0 (L,R) ch, ~192.00 kbps avg [ENG]
E:\INTERNET\Plaksa.1990.BDRip._2x[MVO] (Rus,Ukr) + Eng.avi
General
Complete name : E:\INTERNET\Plaksa.1990.BDRip._2x[MVO] (Rus,Ukr) + Eng.avi
Format : AVI
Format/Info : Audio Video Interleave
File size : 1.53 GiB
Duration : 1h 24mn
Overall bit rate : 2 582 Kbps
Genre : Comedy/Musical/Romance
Writing application : VirtualDubMod 1.5.10.3 (build 2550/release)
Writing library : VirtualDubMod build 2550/release
Video #0
ID : 0
Format : MPEG-4 Visual
Format profile : Advanced Simple@L5
Format settings, BVOP : 1
Format settings, QPel : No
Format settings, GMC : No warppoints
Format settings, Matrix : Custom
Codec ID : XVID
Codec ID/Hint : XviD
Duration : 1h 24mn
Bit rate : 2 052 Kbps
Width : 704 pixels
Height : 384 pixels
Display aspect ratio : 1.85:1
Frame rate : 23.976 fps
Color space : YUV
Chroma subsampling : 4:2:0
Bit depth : 8 bits
Scan type : Progressive
Compression mode : Lossy
Bits/(Pixel*Frame) : 0.317
Stream size : 1.22 GiB (79%)
Writing library : XviD 64
Audio #1
ID : 1
Format : MPEG Audio
Format version : Version 1
Format profile : Layer 3
Mode : Joint stereo
Codec ID : 55
Codec ID/Hint : MP3
Duration : 1h 24mn
Bit rate mode : Constant
Bit rate : 128 Kbps
Channel(s) : 2 channels
Sampling rate : 48.0 KHz
Compression mode : Lossy
Stream size : 77.7 MiB (5%)
Alignment : Aligned on interleaves
Interleave, duration : 42 ms (1.00 video frame)
Interleave, preload duration : 504 ms
Writing library : LAMEЄЄЄ1Л$±ЭИј‡ръP;Ь
Audio #2
ID : 2
Format : AC-3
Format/Info : Audio Coding 3
Mode extension : CM (complete main)
Format settings, Endianness : Big
Codec ID : 2000
Duration : 1h 24mn
Bit rate mode : Constant
Bit rate : 192 Kbps
Channel(s) : 2 channels
Channel positions : Front: L R
Sampling rate : 48.0 KHz
Bit depth : 16 bits
Compression mode : Lossy
Delay relative to video : 23ms
Stream size : 116 MiB (7%)
Alignment : Split accross interleaves
Interleave, duration : 42 ms (1.00 video frame)
Interleave, preload duration : 500 ms
Audio #3
ID : 3
Format : AC-3
Format/Info : Audio Coding 3
Mode extension : CM (complete main)
Format settings, Endianness : Big
Codec ID : 2000
Duration : 1h 24mn
Bit rate mode : Constant
Bit rate : 192 Kbps
Channel(s) : 2 channels
Channel positions : Front: L R
Sampling rate : 48.0 KHz
Bit depth : 16 bits
Compression mode : Lossy
Stream size : 117 MiB (7%)
Alignment : Split accross interleaves
Interleave, duration : 42 ms (1.00 video frame)
Interleave, preload duration : 500 ms



Скачать Плакса.Cry-Baby.(Джон.Уотерс.John.Waters).[1990.комедия.мелодрама.мюзикл.BDRip].2x[MVO].(Rus.Ukr).+.Original.Eng.torrent без регистрации
Золото ЗОЛОТАЯ РАЗДАЧА! СКАЧАННОЕ НЕ ЗАСЧИТЫВАЕТСЯ! Золото
Дата: Зарегистрирован   [ Тип: внутренний ] Как тут cкачать?
MAGNET ссылка
MAGNET ссылка


Скачать .torrent

16 KB

Статус: проверено DHT
Скачан: торрент - 5386 раз, раздача полностью - 2 раз
Размер: 1,53 GB
Оценка:  5 (Голосов: 2)
Поблагодарили: 1
Поделиться ссылкой на эту раздачу с друзьями:
В контактеFacebookОдноклассникиTwitterLivejournalМой МирLiveinternet
 

 
Показать сообщения:    


Вы не можете начинать темы
Вы не можете отвечать на сообщения
Вы не можете редактировать свои сообщения
Вы не можете удалять свои сообщения
Вы не можете голосовать в опросах
Вы не можете прикреплять файлы к сообщениям
Вы можете скачивать файлы