Loading...
Error

Скачать Киборг-полицейский 2 / Cyborg Cop II (Сэм Фёрстенберг / Sam Firstenberg) [1994, фантастика, боевик, DVDRip] [AVO] (А. Гаврилов) торрент без регистрации

 
Статистика раздачи
Размер:  1,37 GB   |    Скачан:  106 раз
Сидов:  1  [  0 KB/s  ]  
 
Автор Сообщение

leon030982

[] 

Киборг-полицейский 2 / Cyborg Cop II


Год выпуска: 1994
Страна: США
Жанр: фантастика, боевик
Продолжительность: 01:33:24
Перевод: Авторский (одноголосый закадровый) [А. Гаврилов]
Cубтитры: нет
Оригинальная аудиодорожка: нет

Режиссер: Сэм Фёрстенберг / Sam Firstenberg

В ролях: Дэвид Брэдли, Морган Хантер, Джилл Пирс, Виктор Меллени, Дуглас Бристоу, Дэйл Каттс

Описание: Человеческая душа или механический разум — что сильнее в этом безжалостном мире? И в самом худшем кошмаре полицейский Джек Райен не хотел бы представить себе, что ему вновь придется сойтись в смертельной схватке с целым отрядом киборгов-убийц!


Качество видео: DVDRip
Формат видео: AVI
Видео кодек: XviD
Аудио кодек: AC3
Видео: 720x544 (1.32:1), 25 fps, XviD build 47 ~1898 kbps avg, 0.19 bit/pixel
Аудио: 48 kHz, AC3 Dolby Digital, 2/0 (L,R) ch, ~192.00 kbps avg
За оцифровку звуковой дорожки с переводом Андрея Гаврилова с лицензионной VHS от West Video большое спасибо ochkarik1.
За синхронизацию дороги и работу со звуком огромная благодарность ale_x2008.
E:\INTERNET\Киборг-полицейский 2.avi
General
Complete name : E:\INTERNET\Киборг-полицейский 2.avi
Format : AVI
Format/Info : Audio Video Interleave
File size : 1.37 GiB
Duration : 1h 33mn
Overall bit rate : 2 100 Kbps
Writing application : VirtualDubModRus 1.5.10.2 (build 2542/release)
Writing library : VirtualDubMod build 2542/release
Video #0
ID : 0
Format : MPEG-4 Visual
Format profile : Advanced Simple@L5
Format settings, BVOP : 1
Format settings, QPel : No
Format settings, GMC : No warppoints
Format settings, Matrix : Default (H.263)
Codec ID : XVID
Codec ID/Hint : XviD
Duration : 1h 33mn
Bit rate : 1 899 Kbps
Width : 720 pixels
Height : 544 pixels
Display aspect ratio : 4:3
Frame rate : 25.000 fps
Color space : YUV
Chroma subsampling : 4:2:0
Bit depth : 8 bits
Scan type : Progressive
Compression mode : Lossy
Bits/(Pixel*Frame) : 0.194
Stream size : 1.24 GiB (90%)
Writing library : XviD 1.2.0.dev47 (UTC 2006-11-01)
Audio #1
ID : 1
Format : AC-3
Format/Info : Audio Coding 3
Mode extension : CM (complete main)
Format settings, Endianness : Big
Codec ID : 2000
Duration : 1h 33mn
Bit rate mode : Constant
Bit rate : 192 Kbps
Channel(s) : 2 channels
Channel positions : Front: L R
Sampling rate : 48.0 KHz
Bit depth : 16 bits
Compression mode : Lossy
Stream size : 128 MiB (9%)
Alignment : Split accross interleaves
Interleave, duration : 40 ms (1.00 video frame)
Interleave, preload duration : 500 ms



Скачать Киборг-полицейский.2.Cyborg.Cop.II.(Сэм.Фёрстенберг.Sam.Firstenberg).[1994.фантастика.боевик.DVDRip].[AVO].(А.Гаврилов).torrent без регистрации
Золото ЗОЛОТАЯ РАЗДАЧА! СКАЧАННОЕ НЕ ЗАСЧИТЫВАЕТСЯ! Золото
Дата: Зарегистрирован   [ Тип: внутренний ] Как тут cкачать?
MAGNET ссылка
MAGNET ссылка


Скачать .torrent

14 KB

Статус: проверено DHT
Скачан: торрент - 106 раз, раздача полностью - 3 раз
Размер: 1,37 GB
Оценка:  - (Голосов: 0)
Поблагодарили: 1
Поделиться ссылкой на эту раздачу с друзьями:
В контактеFacebookОдноклассникиTwitterLivejournalМой МирLiveinternet
 

 
Показать сообщения:    


Вы не можете начинать темы
Вы не можете отвечать на сообщения
Вы не можете редактировать свои сообщения
Вы не можете удалять свои сообщения
Вы не можете голосовать в опросах
Вы не можете прикреплять файлы к сообщениям
Вы можете скачивать файлы