Loading...
Error

Скачать Один Дома / Home Alone (Крис Коламбyс / Chris Columbus) [1990, Комедия, семейный, BDRip] [AVO] (Алексей Михалёв [Ранний перевод]) торрент без регистрации

 
Статистика раздачи
Размер:  1,58 GB   |    Скачан:  531 раз
Сидов:  1  [  0 KB/s  ]   Личеров:  1  [  0 KB/s  ]  
 
Автор Сообщение

leon030982

[] 


Один Дома / Home Alone



Год выпуска: 1990
Выпущено: США
Жанр: Комедия, семейный
Продолжительность: 01:42:54
Перевод: Авторский (одноголосный, закадровый) [Алексей Михалёв] (Ранний перевод!)
Режиссер: Крис Коламбyс / Chris Columbus
В ролях: Маколей Калкин, Джо Пеши, Дэниел Стерн, Джон Хёрд, Робертс Блоссом, Кэтрин О’Хара, Анджела Геталс, Девин Рэтрей, Джерри Бэммен, Хиллари Вульф и другие.

Описание: Американское семейство отправляется из Чикаго в Европу, но в спешке сборов бестолковые родители забывают дома… одного из своих детей. Юное создание, однако, не теряется и демонстрирует чудеса изобретательности. И когда в дом залезают грабители, им приходится не раз пожалеть о встрече с милым крошкой.

Качество: BDRip
Формат: AVI
Видео кодек: XviD
Аудио кодек: AC3
Видео: 704x384 (1.83:1), 23.976 fps, XviD build 50 ~1990 kbps avg, 0.31 bit/pixel
Аудио: 48 kHz, AC3 Dolby Digital, 2/0 (L,R) ch, ~192.00 kbps avg [А.Михалёв_Ранний VHSRip]

Оскар, 1991 год
Номинации (2):
Лучшая песня — «Somewhere in My Memory»
Лучший оригинальный саундтрек
Золотой глобус, 1991 год
Номинации (2):
Лучший фильм (комедия или мюзикл)
Лучшая мужская роль (комедия или мюзикл) (Маколей Калкин)
E:\INTERNET\Один Дома.BDRip._1990.[AVO] (Михалёв (ранний перевод!)
General
Complete name : E:\INTERNET\Один Дома.BDRip._1990.[AVO] (Михалёв (ранний перевод!)
Format : AVI
Format/Info : Audio Video Interleave
File size : 1.58 GiB
Duration : 1h 42mn
Overall bit rate : 2 192 Kbps
Movie name : Один Дома.BDRip._1990.[AVO] (Михалёв (ранний перевод!)
Writing application : VirtualDubModRus 1.5.10.2 (build 2542/release)
Writing library : VirtualDubMod build 2542/release
Video #0
ID : 0
Format : MPEG-4 Visual
Format profile : Advanced Simple@L5
Format settings, BVOP : 1
Format settings, QPel : No
Format settings, GMC : No warppoints
Format settings, Matrix : Custom
Codec ID : XVID
Codec ID/Hint : XviD
Duration : 1h 42mn
Bit rate : 1 990 Kbps
Width : 704 pixels
Height : 384 pixels
Display aspect ratio : 1.85:1
Frame rate : 23.976 fps
Color space : YUV
Chroma subsampling : 4:2:0
Bit depth : 8 bits
Scan type : Progressive
Compression mode : Lossy
Bits/(Pixel*Frame) : 0.307
Stream size : 1.43 GiB (91%)
Writing library : XviD 1.2.1 (UTC 2008-12-04)
Audio #1
ID : 1
Format : AC-3
Format/Info : Audio Coding 3
Mode extension : CM (complete main)
Format settings, Endianness : Big
Codec ID : 2000
Duration : 1h 42mn
Bit rate mode : Constant
Bit rate : 192 Kbps
Channel(s) : 2 channels
Channel positions : Front: L R
Sampling rate : 48.0 KHz
Bit depth : 16 bits
Compression mode : Lossy
Stream size : 141 MiB (9%)
Alignment : Split accross interleaves
Interleave, duration : 42 ms (1.00 video frame)
Interleave, preload duration : 500 ms
Видеоряд от HQClub, авторская дорожка Михалева взята из раздачи akchurin.a2011 - за что ему большое Спасибо!




Скачать Один.Дома.Home.Alone.(Крис.Коламбyс.Chris.Columbus).[1990.Комедия.семейный.BDRip].[AVO].(Алексей.Михалёв.[Ранний.перевод]).torrent без регистрации
Золото ЗОЛОТАЯ РАЗДАЧА! СКАЧАННОЕ НЕ ЗАСЧИТЫВАЕТСЯ! Золото
Дата: Зарегистрирован   [ Тип: внутренний ] Как тут cкачать?
MAGNET ссылка
MAGNET ссылка


Скачать .torrent

16 KB

Статус: проверено DHT
Скачан: торрент - 531 раз, раздача полностью - 1 раз
Размер: 1,58 GB
Оценка:  5 (Голосов: 2)
Поблагодарили: 1
Поделиться ссылкой на эту раздачу с друзьями:
В контактеFacebookОдноклассникиTwitterLivejournalМой МирLiveinternet
 

 
Показать сообщения:    


Вы не можете начинать темы
Вы не можете отвечать на сообщения
Вы не можете редактировать свои сообщения
Вы не можете удалять свои сообщения
Вы не можете голосовать в опросах
Вы не можете прикреплять файлы к сообщениям
Вы можете скачивать файлы