Loading...
Error

Скачать Пикап: Съём без правил (Феликс Герчиков) [2009, мелодрама, комедия, BDRip-AVC] торрент без регистрации

 
Статистика раздачи
Размер:  745 MB   |    Скачан:  119 раз
Сидов:  1  [  0 KB/s  ]  
 
Автор Сообщение

МихаНЕзатор

[] 

Пикап: Съём без правил
(2009) BDRip-AVC


Информация о фильме
Название: Пикап: Съём без правил
Оригинальное название: Оригинальное название (для иностранных фильмов)
Год выхода: 2009
Жанр: мелодрама, комедия
Режиссер: Феликс Герчиков

В ролях: Константин Крюков, Шамиль Хаматов, Вадим Утенков, Эльмира Метревели, Ксения Радченко, Екатерина Гордон, Татьяна Лютаева, Полина Аскери

О фильме: Они называют себя пикаперами. Их девиз бери от жизни всё, пока молод, их оружие внешность, их «жертвы» девушки, места их охоты улицы ночной Москвы.

Трое молодых парней, студентов, состязаются за право быть лучшим в теории и практике соблазнения. Циники и манипуляторы, они вырабатывают правила и условия соревнования. По ходу «игры» растет азарт, растут и ставки до тех пор, пока они не затевают спор, который навсегда изменит их жизни.



Страна: Россия
Продолжительность: 01:16:35
Перевод: Оригинал (Русский)

Файл
Кодек: x.264
Качество: BDRip-AVC
Видео: 960x400 (2,40:1), 23,976 fps, 1041 kbps, 0.113 bit/pixel
Звук: 48 kHz, AC3 Dolby Digital, 6 ch, ~320.00 kbps

&
Общее
Уникальный идентификатор : 242907652333159658594526239339714418452 (0xB6BE4FE81308E372A716184E92CB9714)
Полное имя : D:Pikap.Sem bez pravil.2009.BDRip-AVC.mkv
Формат : Matroska
Версия формата : Version 4 / Version 2
Размер файла : 745 Мбайт
Продолжительность : 1 ч. 16 м.
Общий поток : 1360 Кбит/сек
Название фильма : Пикап - Съем без правил (2009) BDRip-AVC rip by Rulya74
Дата кодирования : UTC 2013-06-30 18:16:47
Программа кодирования : mkvmerge v6.2.0 ('Promised Land') built on Apr 28 2013 12:22:01
Библиотека кодирования : libebml v1.3.0 + libmatroska v1.4.0

Видео
Идентификатор : 1
Формат : AVC
Формат/Информация : Advanced Video Codec
Профиль формата : High@L4.1
Параметр CABAC формата : Да
Параметр ReFrames формата : 12 кадров
Идентификатор кодека : V_MPEG4/ISO/AVC
Продолжительность : 1 ч. 16 м.
Битрейт : 1041 Кбит/сек
Ширина : 960 пикселей
Высота : 400 пикселей
Соотношение сторон : 2,40:1
Режим частоты кадров : Постоянный
Частота кадров : 23,976 кадра/сек
Цветовое пространство : YUV
Субдискретизация насыщенности : 4:2:0
Битовая глубина : 8 бит
Тип развёртки : Прогрессивная
Бит/(Пиксели*Кадры) : 0.113
Размер потока : 555 Мбайт (74%)
Библиотека кодирования : x264 core 133 r2334 a3ac64b
Настройки программы : cabac=1 / ref=12 / deblock=1:-3:-2 / analyse=0x3:0x113 / me=umh / subme=10 / psy=1 / psy_rd=1.28:0.09 / mixed_ref=1 / me_range=32 / chroma_me=1 / trellis=2 / 8x8dct=1 / cqm=0 / deadzone=21,11 / fast_pskip=0 / chroma_qp_offset=-3 / threads=10 / lookahead_threads=1 / sliced_threads=0 / nr=0 / decimate=1 / interlaced=0 / bluray_compat=0 / constrained_intra=0 / bframes=7 / b_pyramid=2 / b_adapt=1 / b_bias=0 / direct=3 / weightb=1 / open_gop=0 / weightp=2 / keyint=240 / keyint_min=23 / scenecut=40 / intra_refresh=0 / rc_lookahead=40 / rc=2pass / mbtree=1 / bitrate=1041 / ratetol=1.0 / qcomp=0.60 / qpmin=0 / qpmax=69 / qpstep=4 / cplxblur=20.0 / qblur=0.5 / vbv_maxrate=62500 / vbv_bufsize=78125 / nal_hrd=none / ip_ratio=1.40 / aq=1:1.00
Default : Да
Forced : Нет

Аудио
Идентификатор : 2
Формат : AC-3
Формат/Информация : Audio Coding 3
Расширение режима : CM (complete main)
Параметр Endianness формата : Big
Идентификатор кодека : A_AC3
Продолжительность : 1 ч. 16 м.
Вид битрейта : Постоянный
Битрейт : 320 Кбит/сек
Каналы : 6 каналов
Расположение каналов : Front: L C R, Side: L R, LFE
Частота : 48,0 КГц
Битовая глубина : 16 бит
Метод сжатия : С потерями
Размер потока : 175 Мбайт (24%)
Заголовок : Оригинал
Язык : Russian
Default : Да
Forced : Нет



Скачать Пикап.Съём.без.правил.(Феликс.Герчиков).[2009.мелодрама.комедия.BDRip-AVC].torrent без регистрации
Золото ЗОЛОТАЯ РАЗДАЧА! СКАЧАННОЕ НЕ ЗАСЧИТЫВАЕТСЯ! Золото
Дата: Зарегистрирован   [ Тип: внутренний ] Как тут cкачать?
MAGNET ссылка
MAGNET ссылка


Скачать .torrent

15 KB

Статус: проверено DHT
Скачан: торрент - 119 раз, раздача полностью - 71 раз
Размер: 745 MB
Оценка:  - (Голосов: 0)
Поблагодарили: 2
Поделиться ссылкой на эту раздачу с друзьями:
В контактеFacebookОдноклассникиTwitterLivejournalМой МирLiveinternet
 

 
Показать сообщения:    


Вы не можете начинать темы
Вы не можете отвечать на сообщения
Вы не можете редактировать свои сообщения
Вы не можете удалять свои сообщения
Вы не можете голосовать в опросах
Вы не можете прикреплять файлы к сообщениям
Вы можете скачивать файлы