Loading...
Error

Скачать Столкновение с Бездной / Deep Impact (Мими Ледер / Mimi Leder) [1998, фильм-катастрофа, мелодрама, фантастика, HDRip] [MVO] (ОРТ) + [DUB] + [AVO] (Ю.Живов) торрент без регистрации

 
Статистика раздачи
Размер:  1,78 GB   |    Скачан:  130 раз
Сидов:  1  [  0 KB/s  ]  
 
Автор Сообщение

leon030982

[] 

Столкновение с Бездной / Deep Impact


Год выпуска: 1998
Страна: США
Жанр: фильм-катастрофа, мелодрама, фантастика
Продолжительность: 02:01:11
Перевод 1: Профессиональный (многоголосый закадровый) [ОРТ]
Перевод 2: Профессиональный (дублированный)
Перевод 3: Авторский (одноголосный, закадровый) [Ю.Живов]
Cубтитры: нет

Режиссер: Мими Ледер / Mimi Leder

В ролях: Роберт Дювалл, Теа Леони, Элайджа Вуд, Ванесса Редгрейв, Морган Фриман, Максимилиан Шелл, Джеймс Кромуэлл, Рон Элдард, Джон Фавро, Лора Иннес

Описание: Земле грозит неизбежное столкновением с кометой, что приведет к гибели всего живого. Президент США сообщает миру, что до «столкновения с бездной» остается год. На комету отправляют корабль «Мессия» который должен взорвать комету. Но от взрыва комета разлетается на две части. Ничто не может спасти человечество. Как поведут себя люди?…



Качество видео: HDRip
Формат видео: AVI
Видео кодек: ХviD
Аудио кодек: AC3
Видео: 720x304 (2.37:1), 23.976 fps, XviD build 50 ~1511 kbps avg, 0.29 bit/pixel
Аудио 1: 48 kHz, AC3 Dolby Digital, 2/0 (L,R) ch, ~192.00 kbps avg [ОРТ]
Аудио 2: 48 kHz, AC3 Dolby Digital, 2/0 (L,R) ch, ~192.00 kbps avg [Дубляж]
Аудио 3: 48 kHz, AC3 Dolby Digital, 2/0 (L,R) ch, ~192.00 kbps avg [Авторский (Ю.Живов)]

В основу взят релиз akchurin.a2011
Благодарности:
Slink - за оцифровку дорожки ОРТ
Slim9174 - за ее чистку от шумов
Scarabey - за предоставленный HDRip
Дубляж и авторский перевод Ю.Живова взяты из раздачи VOLKiGOR
E:\INTERNET\Столкновение с бездной.1998.HDRip._[ОРТ] +[DUB] + [AVO]
General
Complete name : E:\INTERNET\Столкновение с бездной.1998.HDRip._[ОРТ] +[DUB] + [AVO]
Format : AVI
Format/Info : Audio Video Interleave
File size : 1.78 GiB
Duration : 2h 1mn
Overall bit rate : 2 107 Kbps
Writing application : VirtualDubMod 1.5.10.3 (build 2550/release)
Writing library : VirtualDubMod build 2550/release
Video #0
ID : 0
Format : MPEG-4 Visual
Format profile : Advanced Simple@L5
Format settings, BVOP : 1
Format settings, QPel : No
Format settings, GMC : No warppoints
Format settings, Matrix : Custom
Codec ID : XVID
Codec ID/Hint : XviD
Duration : 2h 1mn
Bit rate : 1 513 Kbps
Width : 720 pixels
Height : 304 pixels
Display aspect ratio : 2.35:1
Frame rate : 23.976 fps
Color space : YUV
Chroma subsampling : 4:2:0
Bit depth : 8 bits
Scan type : Progressive
Compression mode : Lossy
Bits/(Pixel*Frame) : 0.288
Stream size : 1.28 GiB (72%)
Writing library : XviD 1.2.1 (UTC 2008-12-04)
Audio #1
ID : 1
Format : AC-3
Format/Info : Audio Coding 3
Mode extension : CM (complete main)
Format settings, Endianness : Big
Codec ID : 2000
Duration : 2h 1mn
Bit rate mode : Constant
Bit rate : 192 Kbps
Channel(s) : 2 channels
Channel positions : Front: L R
Sampling rate : 48.0 KHz
Bit depth : 16 bits
Compression mode : Lossy
Stream size : 166 MiB (9%)
Alignment : Split accross interleaves
Interleave, duration : 42 ms (1.00 video frame)
Interleave, preload duration : 500 ms
Audio #2
ID : 2
Format : AC-3
Format/Info : Audio Coding 3
Format profile : Dolby Digital
Mode extension : CM (complete main)
Format settings, Endianness : Big
Codec ID : 2000
Duration : 2h 1mn
Bit rate mode : Constant
Bit rate : 192 Kbps
Channel(s) : 2 channels
Channel positions : Front: L R
Sampling rate : 48.0 KHz
Bit depth : 16 bits
Compression mode : Lossy
Stream size : 166 MiB (9%)
Alignment : Split accross interleaves
Interleave, duration : 42 ms (1.00 video frame)
Interleave, preload duration : 500 ms
Audio #3
ID : 3
Format : AC-3
Format/Info : Audio Coding 3
Mode extension : CM (complete main)
Format settings, Endianness : Big
Codec ID : 2000
Duration : 2h 1mn
Bit rate mode : Constant
Bit rate : 192 Kbps
Channel(s) : 2 channels
Channel positions : Front: L R
Sampling rate : 48.0 KHz
Bit depth : 16 bits
Compression mode : Lossy
Stream size : 166 MiB (9%)
Alignment : Split accross interleaves
Interleave, duration : 42 ms (1.00 video frame)
Interleave, preload duration : 500 ms



Скачать Столкновение.с.Бездной.Deep.Impact.(Мими.Ледер.Mimi.Leder).[1998.фильм-катастрофа.мелодрама.фантастика.HDRip].[MVO].(ОРТ).+.[DUB].+.[AVO].(Ю.Живов).torrent без регистрации
Золото ЗОЛОТАЯ РАЗДАЧА! СКАЧАННОЕ НЕ ЗАСЧИТЫВАЕТСЯ! Золото
Дата: Зарегистрирован   [ Тип: внутренний ] Как тут cкачать?
MAGNET ссылка
MAGNET ссылка


Скачать .torrent

18 KB

Статус: проверено DHT
Скачан: торрент - 130 раз, раздача полностью - 9 раз
Размер: 1,78 GB
Оценка:  5 (Голосов: 3)
Поблагодарили: 8
Поделиться ссылкой на эту раздачу с друзьями:
В контактеFacebookОдноклассникиTwitterLivejournalМой МирLiveinternet
 

 
Показать сообщения:    


Вы не можете начинать темы
Вы не можете отвечать на сообщения
Вы не можете редактировать свои сообщения
Вы не можете удалять свои сообщения
Вы не можете голосовать в опросах
Вы не можете прикреплять файлы к сообщениям
Вы можете скачивать файлы