Loading...
Error

Скачать Роковая Лара / Io, loro e Lara (Карло Вердоне) [2009, комедия, DVDRip] [MVO]+[Оригинал]+[Sub] торрент без регистрации

 
Статистика раздачи
Размер:  746 MB   |    Скачан:  110 раз
Сидов:  1  [  0 KB/s  ]  
 
Автор Сообщение

Marsianka

[] 

Страна: Италия, Blue Sky Films
Жанр: комедия
Год выпуска: 2009
Продолжительность: 01:51:37

Перевод: Профессиональный (многоголосый закадровый)
Оригинальная дорожка: итальянский
Cубтитры: украинский
Режиссер: Карло Вердоне / Carlo Verdone

В ролях: Карло Вердоне, Лаура Кьятти, Анна Бонаюто, Анджела Финоккьяро, Марко Джаллини, Серджо Фиорентини, Ольга Балан, Агнесса Клэсс, Тамара Ди Джулио, Кристина Одассо...

Описание: Молодой священник возвращается после миссии в Африке на родину в Италию, узнав, что умерла его близкая родственница. Вся огромная итальянская семья собирается, чтобы разделить наследство, но откуда ни возьмись появляется странная незнакомка, которой покойная завещает свою драгоценную квартиру. Все возмущаются Кто она? Многие питают к ней ненависть, но не добрый и чувствительный священник Карло.

Исходник: DVD9 R5
Качество: DVDRip
Формат: AVI

Видео: 640x272 (2.35:1), 25.000 fps, XviD MPEG-4 ~797 kbps avg, 0.183 bit/pixel
Аудио: Русский: 48 kHz, МР3, 2 ch, 128.00 kbps Constant
Раздача от:

Общее
Полное имя : Rokovaya.Lara.2009.P.DVDRip.745MB_[Youtracker]_by_avproh.avi
Формат : AVI
Формат/Информация : Audio Video Interleave
Размер файла : 746 Мбайт
Продолжительность : 1 ч. 51 м.
Общий поток : 934 Кбит/сек
Программа кодирования : VirtualDubMod 1.5.10.3 | www.virtualdub-fr.org || (build 2550/release)
Библиотека кодирования : VirtualDubMod build 2550/release

Видео
Идентификатор : 0
Формат : MPEG-4 Visual
Профиль формата : Advanced Simple@L5
Параметр BVOP формата : 1
Параметр QPel формата : Нет
Параметр GMC формата : Без точки перехода
Параметр матрицы формата : Выборочная
Идентификатор кодека : XVID
Идентификатор кодека/Подсказка : XviD
Продолжительность : 1 ч. 51 м.
Битрейт : 797 Кбит/сек
Ширина : 640 пикселей
Высота : 272 пикселя
Соотношение сторон : 2,35:1
Частота кадров : 25,000 кадров/сек
Цветовое пространство : YUV
Субдискретизация насыщенности : 4:2:0
Битовая глубина : 8 бит
Тип развёртки : Прогрессивная
Метод сжатия : С потерями
Бит/(Пиксели*Кадры) : 0.183
Размер потока : 636 Мбайт (85%)
Библиотека кодирования : XviD 65

Аудио
Идентификатор : 1
Формат : MPEG Audio
Версия формата : Version 1
Профиль формата : Layer 3
Идентификатор кодека : 55
Идентификатор кодека/Подсказка : MP3
Продолжительность : 1 ч. 51 м.
Вид битрейта : Постоянный
Битрейт : 128 Кбит/сек
Каналы : 2 канала
Частота : 48,0 КГц
Метод сжатия : С потерями
Размер потока : 102 Мбайт (14%)
Выравнивание : Соединение по промежуткам
Продолжительность промежутка : 40 мс. (1,00 видеокадр)
Время предзагрузки промежутка : 504 мс.



Скачать Роковая.Лара.Io.loro.e.Lara.(Карло.Вердоне).[2009.комедия.DVDRip].[MVO]+[Оригинал]+[Sub].torrent без регистрации
Золото ЗОЛОТАЯ РАЗДАЧА! СКАЧАННОЕ НЕ ЗАСЧИТЫВАЕТСЯ! Золото
Дата: Зарегистрирован   [ Тип: внутренний ] Как тут cкачать?
MAGNET ссылка
MAGNET ссылка


Скачать .torrent

15 KB

Статус: проверено DHT
Скачан: торрент - 110 раз, раздача полностью - 2 раз
Размер: 746 MB
Оценка:  - (Голосов: 0)
Поблагодарили: 0
Поделиться ссылкой на эту раздачу с друзьями:
В контактеFacebookОдноклассникиTwitterLivejournalМой МирLiveinternet
 

 
Показать сообщения:    


Вы не можете начинать темы
Вы не можете отвечать на сообщения
Вы не можете редактировать свои сообщения
Вы не можете удалять свои сообщения
Вы не можете голосовать в опросах
Вы не можете прикреплять файлы к сообщениям
Вы можете скачивать файлы