Loading...
Error

Скачать Лорелея: Ведьма Тихого океана / Lorelei (Синдзи Хигути, Селлин Глюк) [2005, Фантастика, боевик, триллер, драма, военный, DVDRip] [AVC] [Sheikn] [MVO] [AVO] торрент без регистрации

 
Статистика раздачи
Размер:  3,07 GB   |    Скачан:  116 раз
Сидов:  1  [  0 KB/s  ]  
 
Автор Сообщение

Sheikn

[] 

Информация о фильме
Название: Лорелея: Ведьма Тихого океана
Оригинальное название: Lorelei / Lorelei: The Witch of the Pacific Ocean
Год выхода: 2005
Жанр: Фантастика, боевик, триллер, драма, военный
Режиссер: Синдзи Хигути, Селлин Глюк
В ролях: Кодзи Якусё, Сатоси Цумабуки, Тоширо Янагиба, Касии Ю, Синъити Цуцуми, Кен Ишигуро, Колтер Эллисон, Дэвид Остин, Николас Домбровкис, Кристофер Райан Дойл, Норман Инглэнд, Кэролайн Пэрис Глюк, Исао Хасидзумэ, Масато Ибу, Такая Камикава, Рюки Китаока, Крева, Дзюн Кунимура, Мэтт Лаган, Дэйв Монахэн, Дж.Дж. Мортимер, Такехико Оно, Шуго Ошинари, Тайрон Пауэр мл., Рюта Сато, Фред Спайкер, Пьер Таки, Ёсиюки Томино, Синго Цуруми

О фильме: Лето 1945 года. Хиросима и Нагасаки покрыты пеплом. В условиях строжайшей секретности японский флот получает от Германии новую субмарину лодку, оборудованную секретным оружием «Система Лорелея». С его помощью японские подводники должны предотвратить новые атомные бомбардировки



Страна: Япония / Cine Bazar, Fuji Television Network Inc., Kansai Telecasting Corporation, King Record Co. Ltd., Protean Image Group, Toho Company
Продолжительность: 02:08:53
Перевод: Профессиональный, многоголосый / Авторский, одноголосый (Юрий Живов)
Дата релиза: 01.07.2013

Файл
Кодек: MPEG-4 AVC
Качество: DVDRip (AVC)
Видео: 846x360, 2580 Кбит/с
Звук: Русский (АС3, 2 ch, 192 Кбит/с) / Японский (АС3, 6 ch, 448 Кбит/с)

Семпл

Релиз от:

Unique ID : 222456523897067515805410002884865516974 (0xA75B916D05298C01A398D64A999F65AE)
Complete name : D:Loreleja.Ved'ma.Tihogo.okeana.2005.х264.DVDRip.(AVC).Sheikn.mkv
Format : Matroska
Format version : Version 2
File size : 3.07 GiB
Duration : 2h 8mn
Overall bit rate : 3 415 Kbps
Encoded date : UTC 2013-02-28 08:40:42
Writing application : mkvmerge v4.0.0 ('The Stars were mine') сборка от Jun 6 2010 16:18:42
Writing library : libebml v1.0.0 + libmatroska v1.0.0
Video #1
ID : 1
Format : AVC
Format/Info : Advanced Video Codec
Format profile : Main@L3.0
Format settings, CABAC : Yes
Format settings, ReFrames : 4 frames
Codec ID : V_MPEG4/ISO/AVC
Bit rate : 2 580 Kbps
Width : 846 pixels
Height : 360 pixels
Display aspect ratio : 2.35:1
Frame rate mode : Variable
Original frame rate : 23.976 fps
Color space : YUV
Chroma subsampling : 4:2:0
Bit depth : 8 bits
Scan type : Progressive
Bits/(Pixel*Frame) : 0.353
Writing library : x264 core 65
Encoding settings : cabac=1 / ref=4 / deblock=1:-2:-2 / analyse=0x1:0x111 / me=umh / subme=7 / psy_rd=1.0:0.0 / mixed_ref=0 / me_range=20 / chroma_me=1 / trellis=2 / 8x8dct=0 / cqm=0 / deadzone=21,11 / chroma_qp_offset=-2 / threads=6 / nr=0 / decimate=1 / mbaff=0 / bframes=2 / b_pyramid=0 / b_adapt=1 / b_bias=0 / direct=1 / wpredb=0 / keyint=240 / keyint_min=24 / scenecut=40(pre) / rc=2pass / bitrate=2580 / ratetol=1.0 / qcomp=0.60 / qpmin=10 / qpmax=51 / qpstep=4 / cplxblur=20.0 / qblur=0.5 / ip_ratio=1.40 / pb_ratio=1.30 / aq=1:1.00
Language : English
Default : Yes
Forced : No
Color primaries : BT.601 NTSC
Transfer characteristics : BT.709
Matrix coefficients : BT.601
Audio #2
ID : 2
Format : AC-3
Format/Info : Audio Coding 3
Mode extension : CM (complete main)
Format settings, Endianness : Big
Codec ID : A_AC3
Duration : 2h 8mn
Bit rate mode : Constant
Bit rate : 192 Kbps
Channel(s) : 2 channels
Channel positions : Front: L R
Sampling rate : 48.0 KHz
Bit depth : 16 bits
Compression mode : Lossy
Stream size : 177 MiB (6%)
Title : Профессиональный, многоголосый
Language : Russian
Default : Yes
Forced : No
Audio #3
ID : 3
Format : AC-3
Format/Info : Audio Coding 3
Mode extension : CM (complete main)
Format settings, Endianness : Big
Codec ID : A_AC3
Duration : 2h 8mn
Bit rate mode : Constant
Bit rate : 192 Kbps
Channel(s) : 2 channels
Channel positions : Front: L R
Sampling rate : 48.0 KHz
Bit depth : 16 bits
Compression mode : Lossy
Stream size : 177 MiB (6%)
Title : Авторский, одноголосый (Юрий Живов)
Language : Russian
Default : No
Forced : No
Audio #4
ID : 4
Format : AC-3
Format/Info : Audio Coding 3
Mode extension : CM (complete main)
Format settings, Endianness : Big
Codec ID : A_AC3
Duration : 2h 8mn
Bit rate mode : Constant
Bit rate : 448 Kbps
Channel(s) : 6 channels
Channel positions : Front: L C R, Side: L R, LFE
Sampling rate : 48.0 KHz
Bit depth : 16 bits
Compression mode : Lossy
Stream size : 413 MiB (13%)
Title : Японский (оригинал)
Language : Japanese
Default : No
Forced : No



Скачать Лорелея.Ведьма.Тихого.океана.Lorelei.(Синдзи.Хигути.Селлин.Глюк).[2005.Фантастика.боевик.триллер.драма.военный.DVDRip].[AVC].[Sheikn].[MVO].[AVO].torrent без регистрации
Золото ЗОЛОТАЯ РАЗДАЧА! СКАЧАННОЕ НЕ ЗАСЧИТЫВАЕТСЯ! Золото
Дата: Зарегистрирован   [ Тип: внутренний ] Как тут cкачать?
MAGNET ссылка
MAGNET ссылка


Скачать .torrent

31 KB

Статус: проверено DHT
Скачан: торрент - 116 раз, раздача полностью - 37 раз
Размер: 3,07 GB
Оценка:  - (Голосов: 0)
Поблагодарили: 1
Поделиться ссылкой на эту раздачу с друзьями:
В контактеFacebookОдноклассникиTwitterLivejournalМой МирLiveinternet
 

 
Показать сообщения:    


Вы не можете начинать темы
Вы не можете отвечать на сообщения
Вы не можете редактировать свои сообщения
Вы не можете удалять свои сообщения
Вы не можете голосовать в опросах
Вы не можете прикреплять файлы к сообщениям
Вы можете скачивать файлы