Loading...
Error

Скачать Скала / The Rock (Майкл Бэй / Michael Bay) [1996, боевик, триллер, приключения, BDRip] [AVO] (А. Гаврилов, ранний с VHS) + [DUB] торрент без регистрации

 
Статистика раздачи
Размер:  2,36 GB   |    Скачан:  170 раз
Сидов:  1  [  0 KB/s  ]  
 
Автор Сообщение

leon030982

[] 

Скала / The Rock
«Cocked, locked, and Ready to Rock!»


Год выпуска: 1996
Страна: США / Jerry Bruckheimer Films, Hollywood Pictures
Жанр: боевик, триллер, приключения
Продолжительность: 02:16:29
Перевод 1: Авторский (одноголосный, закадровый) [А. Гаврилов, ранний с VHS]
Перевод 2: Профессиональный (дублированный)
Cубтитры: нет

Режиссёр: Майкл Бэй / Michael Bay

В ролях: Шон Коннери / Sean Connery, Николас Кэйдж / Nicolas Cage, Эд Хэррис / Ed Harris, Джон Спенсер / John Spencer, Дэвид Морс / David Morse, Уильям Форсайт / William Forsythe, Майкл Бин / Michael Biehn, Ванесса Марсил / Vanessa Marcil, Джон К. МакГинли / John C. McGinley, Грегори Спорледер / Gregory Sporleder

Описание: Генерал элитных диверсионных спецсил США, за плечами которого опыт чуть ли не всех войн планеты, похищает со своими лучшими подчиненными ракеты со смертоносным газом и захватывает в заложники туристов в бывшей тюрьме «Алькатрас», находящейся на острове в бухте Сан-Франциско.
Они требуют по миллиону долларов семьям погибших и кругленькую сумму себе. Для того, чтобы обезвредить группу, из тюрьмы вытаскивают британского шпиона, когда-то совершившего побег из этой тюрьмы.


Качество видео: BDRip
Формат видео: AVI
Видео кодек: XviD
Аудио кодек: AC3, MP3
Видео: 720x304 (2.37:1), 23.976 fps, XviD build 50 ~2145 kbps avg, 0.41 bit/pixel
Аудио 1: 48 kHz, AC3 Dolby Digital, 2/0 (L,R) ch, ~192.00 kbps avg [А. Гаврилов, ранний с VHS]
Аудио 2: 48 kHz, MPEG Layer 3, 2 ch, ~128.00 kbps avg
E:\INTERNET\Скала.1996.BDRip._[AVO] (Гаврилов с VHS) + [DUB].avi
General
Complete name : E:\INTERNET\Скала.1996.BDRip._[AVO] (Гаврилов с VHS) + [DUB].avi
Format : AVI
Format/Info : Audio Video Interleave
Format profile : OpenDML
File size : 2.36 GiB
Duration : 2h 16mn
Overall bit rate : 2 472 Kbps
Movie name : Скала.1996.BDRip._[AVO] (Гаврилов с VHS) + [DUB].avi
Director : Orbit
Writing application : VirtualDubMod 1.5.10.3 (build 2550/release)
Writing library : VirtualDubMod build 2550/release
Video #0
ID : 0
Format : MPEG-4 Visual
Format profile : Advanced Simple@L5
Format settings, BVOP : 1
Format settings, QPel : No
Format settings, GMC : No warppoints
Format settings, Matrix : Custom
Codec ID : XVID
Codec ID/Hint : XviD
Duration : 2h 16mn
Bit rate : 2 135 Kbps
Width : 720 pixels
Height : 304 pixels
Display aspect ratio : 2.35:1
Frame rate : 23.976 fps
Color space : YUV
Chroma subsampling : 4:2:0
Bit depth : 8 bits
Scan type : Progressive
Compression mode : Lossy
Bits/(Pixel*Frame) : 0.407
Stream size : 2.04 GiB (86%)
Writing library : XviD 1.2.1 (UTC 2008-12-04)
Audio #1
ID : 1
Format : AC-3
Format/Info : Audio Coding 3
Mode extension : CM (complete main)
Format settings, Endianness : Big
Codec ID : 2000
Duration : 2h 16mn
Bit rate mode : Constant
Bit rate : 192 Kbps
Channel(s) : 2 channels
Channel positions : Front: L R
Sampling rate : 48.0 KHz
Bit depth : 16 bits
Compression mode : Lossy
Delay relative to video : 16ms
Stream size : 187 MiB (8%)
Alignment : Split accross interleaves
Interleave, duration : 42 ms (1.00 video frame)
Interleave, preload duration : 500 ms
Audio #2
ID : 2
Format : MPEG Audio
Format version : Version 1
Format profile : Layer 3
Codec ID : 55
Codec ID/Hint : MP3
Duration : 2h 16mn
Bit rate mode : Constant
Bit rate : 128 Kbps
Channel(s) : 2 channels
Sampling rate : 48.0 KHz
Compression mode : Lossy
Stream size : 125 MiB (5%)
Alignment : Aligned on interleaves
Interleave, duration : 42 ms (1.00 video frame)
Interleave, preload duration : 504 ms
Writing library : LAME3.97
Encoding settings : -m s -V 4 -q 2 -lowpass 17 -b 128



Скачать Скала.The.Rock.(Майкл.Бэй.Michael.Bay).[1996.боевик.триллер.приключения.BDRip].[AVO].(А.Гаврилов.ранний.с.VHS).+.[DUB].torrent без регистрации
Золото ЗОЛОТАЯ РАЗДАЧА! СКАЧАННОЕ НЕ ЗАСЧИТЫВАЕТСЯ! Золото
Дата: Зарегистрирован   [ Тип: внутренний ] Как тут cкачать?
MAGNET ссылка
MAGNET ссылка


Скачать .torrent

12 KB

Статус: проверено DHT
Скачан: торрент - 170 раз, раздача полностью - 17 раз
Размер: 2,36 GB
Оценка:  5 (Голосов: 1)
Поблагодарили: 4
Поделиться ссылкой на эту раздачу с друзьями:
В контактеFacebookОдноклассникиTwitterLivejournalМой МирLiveinternet
 

 
Показать сообщения:    


Вы не можете начинать темы
Вы не можете отвечать на сообщения
Вы не можете редактировать свои сообщения
Вы не можете удалять свои сообщения
Вы не можете голосовать в опросах
Вы не можете прикреплять файлы к сообщениям
Вы можете скачивать файлы