Loading...
Error

Скачать Под куполом / Under the Dome (сезон 01) (Джек Бендер) [2013, драма, фантастика, HDTVRip] [Sub] торрент без регистрации

 
Статистика раздачи
Размер:  4,31 GB   |    Скачан:  2705 раз
Сидов:  1  [  0 KB/s  ]  
 
Автор Сообщение

МихаНЕзатор

[] 

Под куполом / Under the Dome


Год выпуска: 2013
Страна: США / CBS
Жанр: драма, фантастика
Продолжительность: ~00:42:00 серия

Перевод: Субтитры
Русские субтитры: есть
Автор перевода: Notabenoid

Режиссёр: Джек Бендер
Сценарий: Стивен Кинг

В ролях: Майк Фогель, Александр Кох, Р. Кейт Харрис, Шерри Боулинг, Кевин Сайзмор, Эндрю Фогель, Стив Болдуин, Линдс Эдвардс, Джефф Фэйхи, Уильям Фраска и др.

Описание: Обычным, пригожим осенним днем, город Честерс Миллз, штат Мэн, был внезапно отрезан от остального мира невидимым силовым барьером. Самолеты врезаются в купол и падают, пылая, с небес; садовнику отрезает силовым полем руку; люди, выехавшие в соседний город по делам, не могут вернуться к своим близким; автомобили взрываются от столкновения с куполом. Никто не понимает, что это за барьер, откуда он взялся и исчезнет ли он.Дейл Барбара, ветеран конфликта в Ираке, а ныне повар, обнаруживает себя в команде с несколькими отважными жителями Джулией Шамвей, владелицей городской газеты, помощником врача, женщиной и тремя храбрыми детьми. Против них выступает Большой Джим Ренни местный политический деятель, который для удержания власти не остановится ни перед чем, даже перед убийством, а также его сын со своим личным «скелетом в шкафу». Но главный их противник сам Купол



Качество: HDTVRip
Видео: XviD, 992 Кбит/с, 640x360
Аудио: MP3, 2 ch, 128 Кбит/с

17.09.2013 г. торент обновлён, добавлена 13 серия!

«Под Куполом» (Under the Dome) роман Стивена Кинга, который опубликован в США 10 ноября 2009 года. Роман является переработанной идеей, с которой Кинг работал уже дважды, в конце 1970-х годов и в начале 1980-х изначально под названием «Под Куполом», а потом «Каннибалы» (The Cannibals). Оба раза автор забрасывал работу, возвратившись к этому материалу лишь во второй половине 2000-х годов.

General
Unique ID : 60189786975840469592239349253959252123 (0x2D48219D6BCFF77FCE98FCDF2DDEF89B)
Complete name : C:Documents and SettingsРабочий столFILMСЕРИАЛЫUnder the DomeUnder.the.Dome.Season.1.720pUnder.the.Dome.S01E01.720p.mkv
Format : Matroska
Format version : Version 2
File size : 1.17 GiB
Duration : 42mn 58s
Overall bit rate : 3 887 Kbps
Encoded date : UTC 2013-06-24 21:11:54
Writing application : mkvmerge v3.0.0 ('Hang up your Hang-Ups') built on Apr 19 2010 11:58:49
Writing library : libebml v0.7.7 + libmatroska v0.8.1

Video
ID : 1
Format : AVC
Format/Info : Advanced Video Codec
Format profile : High@L4.1
Format settings, CABAC : Yes
Format settings, ReFrames : 9 frames
Codec ID : V_MPEG4/ISO/AVC
Duration : 42mn 58s
Bit rate : 3 426 Kbps
Width : 1 280 pixels
Height : 720 pixels
Display aspect ratio : 16:9
Frame rate mode : Constant
Frame rate : 23.976 fps
Color space : YUV
Chroma subsampling : 4:2:0
Bit depth : 8 bits
Scan type : Progressive
Bits/(Pixel*Frame) : 0.155
Stream size : 1.03 GiB (88%)
Writing library : x264 core 133 r2334 a3ac64b
Encoding settings : cabac=1 / ref=9 / deblock=1:-2:-2 / analyse=0x3:0x133 / me=umh / subme=10 / psy=1 / psy_rd=1.00:0.00 / mixed_ref=1 / me_range=32 / chroma_me=1 / trellis=2 / 8x8dct=1 / cqm=0 / deadzone=21,11 / fast_pskip=0 / chroma_qp_offset=-2 / threads=16 / lookahead_threads=1 / sliced_threads=0 / nr=0 / decimate=1 / interlaced=0 / bluray_compat=0 / constrained_intra=0 / bframes=5 / b_pyramid=2 / b_adapt=2 / b_bias=0 / direct=3 / weightb=1 / open_gop=0 / weightp=2 / keyint=250 / keyint_min=23 / scenecut=40 / intra_refresh=0 / rc_lookahead=60 / rc=crf / mbtree=1 / crf=18.0 / qcomp=0.60 / qpmin=0 / qpmax=69 / qpstep=4 / ip_ratio=1.40 / aq=1:1.00
Language : English
Default : No
Forced : No
Matrix coefficients : BT.709

Audio
ID : 2
Format : AC-3
Format/Info : Audio Coding 3
Mode extension : CM (complete main)
Format settings, Endianness : Big
Codec ID : A_AC3
Duration : 42mn 58s
Bit rate mode : Constant
Bit rate : 384 Kbps
Channel(s) : 6 channels
Channel positions : Front: L C R, Side: L R, LFE
Sampling rate : 48.0 KHz
Bit depth : 16 bits
Compression mode : Lossy
Stream size : 118 MiB (10%)
Default : Yes
Forced : No

Внимание! Раздача ведётся путём добавления новых серий; при каждом добавлении создаётся новый торрент. Чтобы начать докачку новой серии, пользователям необходимо сделать следующее:
(1) остановить скачивание,
(2) удалить старый торрент у себя из клиента (старые серии удалять не надо),
(3) скачать новый торрент и запустить его у себя в клиенте вместо старого, при этом указать клиенту путь в старую папку куда и должно происходить скачивание новых серий.
Ваш клиент при этом должен произвести хеширование (проверку) старой папки (если не производит сам - помогите ему сделать это), и будет докачивать только те серии которых у вас ещё нет. Старые серии при этом не удаляются, а продолжают раздаваться!
Eсли вы уже удалили старые серии, то предотвратить повторную закачку старых серий можно, отжав галочку в соответствующих местах при запуске нового торрента. По возможности, желательно не удалять старые серии как можно дольше чтобы релизёр не столько продолжал раздавать старые серии, а смог сконцентрироваться на новых.



Скачать Под.куполом.Under.the.Dome.(сезон.01).(Джек.Бендер).[2013.драма.фантастика.HDTVRip].[Sub].torrent без регистрации
Золото ЗОЛОТАЯ РАЗДАЧА! СКАЧАННОЕ НЕ ЗАСЧИТЫВАЕТСЯ! Золото
Дата: Зарегистрирован   [ Тип: внутренний ] Как тут cкачать?
MAGNET ссылка
MAGNET ссылка


Скачать .torrent

13 KB

Статус: проверено DHT
Скачан: торрент - 2705 раз, раздача полностью - 28 раз
Размер: 4,31 GB
Оценка:  4,8 (Голосов: 4)
Поблагодарили: 8
Поделиться ссылкой на эту раздачу с друзьями:
В контактеFacebookОдноклассникиTwitterLivejournalМой МирLiveinternet
 

 

miha181

[] 

Спасибо!!!
 

МихаНЕзатор

[] 

Раздача обновлена
 
Показать сообщения:    


Вы не можете начинать темы
Вы не можете отвечать на сообщения
Вы не можете редактировать свои сообщения
Вы не можете удалять свои сообщения
Вы не можете голосовать в опросах
Вы не можете прикреплять файлы к сообщениям
Вы можете скачивать файлы