Loading...
Error

Скачать Звездные войны: Эпизод 5 – Империя наносит ответный удар / Star Wars: Episode V - The Empire Strikes Back (Джордж Лукас / George Lucas) [1980, фантастика, фэнтези, приключения, BDRip] [DUB] (ОРТ) + [MVO] (РТР / Лазер Видео) торрент без регистрации

 
Статистика раздачи
Размер:  1,64 GB   |    Скачан:  2006 раз
Сидов:  1  [  0 KB/s  ]  
 
Автор Сообщение

leon030982

[] 

Звездные войны: Эпизод 5 – Империя наносит ответный удар / Star Wars: Episode V - The Empire Strikes Back



Год выпуска: 1980
Страна: США
Жанр: фантастика, фэнтези, приключения
Продолжительность: 02:07:22
Перевод 1: Профессиональный (дублированный) [ОРТ]
Перевод 2: Профессиональный (многоголосый закадровый) [РТР / Лазер Видео]
Cубтитры: нет
Оригинальная аудиодорожка: нет

Режиссер: Джордж Лукас / George Lucas

В ролях: Марк Хэмилл, Харрисон Форд, Кэрри Фишер, Билли Ди Уильямс, Энтони Дэниелс, Дэвид Праус, Питер Мейхью, Кенни Бейкер, Фрэнк Оз, Алек Гиннесс, Джереми Буллок, Джон Холлис, Джек Первис, Дес Уэбб, Клайв Ревилл, Кеннет Колли и др.

Описание: Борьба за Галактику обостряется в пятом эпизоде космической саги. Войска Императора начинают массированную атаку на повстанцев и их союзников.
Хан Соло и принцесса Лейя укрываются в Заоблачном Городе, в котором их и захватывает Дарт Вейдер, в то время как Люк Скайуокер находится на таинственной планете джунглей Дагобар.
Там Мастер-джедай Йода обучает молодого рыцаря навыкам обретения Силы. Люк даже не предполагает, как скоро ему придется воспользоваться знаниями старого Мастера: впереди битва с превосходящими силами Императора и смертельный поединок с Дартом Вейдером.




Качество видео: BDRip
Формат видео: AVI
Видео кодек: XviD
Аудио кодек: AC3
Видео: 720x304 (2.37:1), 23.976 fps, XviD build 65, 1443 kbps avg, 0.28 bit/pixel
Аудио 1: 48 kHz AC3 Dolby Digital 2/0 (L,R) ch 192.00 kbps avg
Аудио 2: 48 kHz AC3 Dolby Digital 2/0 (L,R) ch 192.00 kbps avg

E:\INTERNET\Star Wars. Episode V.1980.BDRip.[DUB OPT] + [MVO PTP].avi
General
Complete name : E:\INTERNET\Star Wars. Episode V.1980.BDRip.[DUB OPT] + [MVO PTP].avi
Format : AVI
Format/Info : Audio Video Interleave
File size : 1.64 GiB
Duration : 2h 7mn
Overall bit rate : 1 842 Kbps
Writing application : VirtualDubMod 1.5.10.3 (build 2550/release)
Writing library : VirtualDubMod build 2550/release
Video #0
ID : 0
Format : MPEG-4 Visual
Format profile : Advanced Simple@L5
Format settings, BVOP : 1
Format settings, QPel : No
Format settings, GMC : No warppoints
Format settings, Matrix : Custom
Codec ID : XVID
Codec ID/Hint : XviD
Duration : 2h 7mn
Bit rate : 1 444 Kbps
Width : 720 pixels
Height : 304 pixels
Display aspect ratio : 2.35:1
Frame rate : 23.976 fps
Color space : YUV
Chroma subsampling : 4:2:0
Bit depth : 8 bits
Scan type : Progressive
Compression mode : Lossy
Bits/(Pixel*Frame) : 0.275
Stream size : 1.28 GiB (78%)
Writing library : XviD 65
Audio #1
ID : 1
Format : AC-3
Format/Info : Audio Coding 3
Mode extension : CM (complete main)
Format settings, Endianness : Big
Codec ID : 2000
Duration : 2h 7mn
Bit rate mode : Constant
Bit rate : 192 Kbps
Channel(s) : 2 channels
Channel positions : Front: L R
Sampling rate : 48.0 KHz
Bit depth : 16 bits
Compression mode : Lossy
Stream size : 175 MiB (10%)
Alignment : Split accross interleaves
Interleave, duration : 42 ms (1.00 video frame)
Interleave, preload duration : 500 ms
Audio #2
ID : 2
Format : AC-3
Format/Info : Audio Coding 3
Mode extension : CM (complete main)
Format settings, Endianness : Big
Codec ID : 2000
Duration : 2h 7mn
Bit rate mode : Constant
Bit rate : 192 Kbps
Channel(s) : 2 channels
Channel positions : Front: L R
Sampling rate : 48.0 KHz
Bit depth : 16 bits
Compression mode : Lossy
Stream size : 175 MiB (10%)
Alignment : Split accross interleaves
Interleave, duration : 42 ms (1.00 video frame)
Interleave, preload duration : 500 ms



Скачать Звездные.войны.Эпизод.5.–.Империя.наносит.ответный.удар.Star.Wars.Episode.V.-.The.Empire.Strikes.Back.(Джордж.Лукас.George.Lucas).[1980.фантастика.фэнтези.приключения.BDRip].[DUB].(ОРТ).+.[MVO].(РТР.Лазер.Видео).torrent без регистрации
Золото ЗОЛОТАЯ РАЗДАЧА! СКАЧАННОЕ НЕ ЗАСЧИТЫВАЕТСЯ! Золото
Дата: Зарегистрирован   [ Тип: внутренний ] Как тут cкачать?
MAGNET ссылка
MAGNET ссылка


Скачать .torrent

17 KB

Статус: проверено DHT
Скачан: торрент - 2006 раз, раздача полностью - 94 раз
Размер: 1,64 GB
Оценка:  5 (Голосов: 4)
Поблагодарили: 7
Поделиться ссылкой на эту раздачу с друзьями:
В контактеFacebookОдноклассникиTwitterLivejournalМой МирLiveinternet
 

 
Показать сообщения:    


Вы не можете начинать темы
Вы не можете отвечать на сообщения
Вы не можете редактировать свои сообщения
Вы не можете удалять свои сообщения
Вы не можете голосовать в опросах
Вы не можете прикреплять файлы к сообщениям
Вы можете скачивать файлы