Loading...
Error

Скачать Призрак дома на холме / The Haunting (Ян Де Бонт) [1999, ужасы, фэнтези, триллер, детектив, DTheaterRip] [MVO]+[Sub] торрент без регистрации

 
Статистика раздачи
Размер:  2,05 GB   |    Скачан:  107 раз
Сидов:  1  [  0 KB/s  ]  
 
Автор Сообщение

Marsianka

[] 

Название: Призрак дома на холме
Оригинальное название: The Haunting
Год выпуска: 1999
Жанр: ужасы, фэнтези, триллер, детектив
Выпущено: США, DreamWorks SKG, Roth-Arnold Productions
Режиссер: Ян Де Бонт
В ролях: Лили Тейлор, Лиам Нисон, Кэтрин Зета-Джонс, Оуэн Уилсон, Брюс Дерн, Мэриэн Селдес, Аликс Коромзай, Тодд Филд, Вирджиния Мэдсен, Майкл Кавана

О фильме: Жуткие легенды ходят вокруг огромного и зловещего особняка, известного как «Дом на холме». Это мрачное и величественное строение, некогда принадлежавшее богатейшему текстильному магнату Хью Крэйну, вот уже больше века стоит пустым и считается проклятым местом. Но именно его для своих экспериментов выбирает специалист по изучению сна доктор Марроу. Группа из четырех страдающих бессоницей молодых людей, которую пригласил доктор Марроу, должна будет провести в жутком доме несколько дней и ночей. Однако никто из участников этого странного проекта не предполагал, с каким чудовищным кошмаром им придётся столкнуться...



Качество: DTheaterRip
Видео: XviD, 1579 Кбит/с, 720x304
Аудио: Русский (AC3, 6 ch, 448 Кбит/с), английский (AC3, 6 ch, 576 Кбит/с)
Размер: 2.05 ГБ
Продолжительность: 01:52:21
Перевод: Профессиональный многоголосый
Субтитры Русские, английские
Общее
Полное имя : E:VideoPrizrak.doma.na.holme.1999.XviD.DTheaterRipPrizrak.doma.na.holme.1999.eng.srt
Размер файла : 85,8 Кбайт

Общее
Полное имя : E:VideoPrizrak.doma.na.holme.1999.XviD.DTheaterRipPrizrak.doma.na.holme.1999.Original.eng.ac3
Формат : AC-3
Формат/Информация : Audio Coding 3
Размер файла : 463 Мбайт
Продолжительность : 1 ч. 52 м.
Режим общего битрейта : Постоянный
Общий поток : 576 Кбит/сек

Аудио
Формат : AC-3
Формат/Информация : Audio Coding 3
Расширение режима : CM (complete main)
Параметр Endianness формата : Big
Продолжительность : 1 ч. 52 м.
Вид битрейта : Постоянный
Битрейт : 576 Кбит/сек
Каналы : 6 каналов
Расположение каналов : Front: L C R, Side: L R, LFE
Частота : 48,0 КГц
Битовая глубина : 16 бит
Метод сжатия : С потерями
Размер потока : 463 Мбайт (100%)

Общее
Полное имя : E:VideoPrizrak.doma.na.holme.1999.XviD.DTheaterRipPrizrak.doma.na.holme.1999.rus.srt
Размер файла : 72,8 Кбайт

Общее
Полное имя : E:VideoPrizrak.doma.na.holme.1999.XviD.DTheaterRipPrizrak.doma.na.holme.1999.XviD.DTheaterRip.avi
Формат : AVI
Формат/Информация : Audio Video Interleave
Размер файла : 1,60 Гбайт
Продолжительность : 1 ч. 52 м.
Общий поток : 2036 Кбит/сек
Программа кодирования : VirtualDubMod 1.5.10.2 (build 2540/release)
Библиотека кодирования : VirtualDubMod build 2540/release

Видео
Идентификатор : 0
Формат : MPEG-4 Visual
Профиль формата : Advanced Simple@L5
Параметр BVOP формата : 1
Параметр QPel формата : Нет
Параметр GMC формата : Без точки перехода
Параметр матрицы формата : Default (H.263)
Режим смешивания : Сжатый битовый поток
Идентификатор кодека : XVID
Идентификатор кодека/Подсказка : XviD
Продолжительность : 1 ч. 52 м.
Битрейт : 1579 Кбит/сек
Ширина : 720 пикселей
Высота : 304 пикселя
Соотношение сторон : 2,35:1
Частота кадров : 23,976 кадра/сек
Цветовое пространство : YUV
Субдискретизация насыщенности : 4:2:0
Битовая глубина : 8 бит
Тип развёртки : Прогрессивная
Метод сжатия : С потерями
Бит/(Пиксели*Кадры) : 0.301
Размер потока : 1,24 Гбайт (78%)
Библиотека кодирования : XviD 1.2.1 (UTC 2008-12-04)

Аудио
Идентификатор : 1
Формат : AC-3
Формат/Информация : Audio Coding 3
Расширение режима : CM (complete main)
Параметр Endianness формата : Big
Идентификатор кодека : 2000
Продолжительность : 1 ч. 52 м.
Вид битрейта : Постоянный
Битрейт : 448 Кбит/сек
Каналы : 6 каналов
Расположение каналов : Front: L C R, Side: L R, LFE
Частота : 48,0 КГц
Битовая глубина : 16 бит
Метод сжатия : С потерями
Размер потока : 360 Мбайт (22%)
Выравнивание : Разделение по промежуткам
Продолжительность промежутка : 42 мс. (1,00 видеокадр)
Время предзагрузки промежутка : 500 мс.



Скачать Призрак.дома.на.холме.The.Haunting.(Ян.Де.Бонт).[1999.ужасы.фэнтези.триллер.детектив.DTheaterRip].[MVO]+[Sub].torrent без регистрации
Золото ЗОЛОТАЯ РАЗДАЧА! СКАЧАННОЕ НЕ ЗАСЧИТЫВАЕТСЯ! Золото
Дата: Зарегистрирован   [ Тип: внутренний ] Как тут cкачать?
MAGNET ссылка
MAGNET ссылка


Скачать .torrent

11 KB

Статус: проверено DHT
Скачан: торрент - 107 раз, раздача полностью - 40 раз
Размер: 2,05 GB
Оценка:  - (Голосов: 0)
Поблагодарили: 3
Поделиться ссылкой на эту раздачу с друзьями:
В контактеFacebookОдноклассникиTwitterLivejournalМой МирLiveinternet
 

 
Показать сообщения:    


Вы не можете начинать темы
Вы не можете отвечать на сообщения
Вы не можете редактировать свои сообщения
Вы не можете удалять свои сообщения
Вы не можете голосовать в опросах
Вы не можете прикреплять файлы к сообщениям
Вы можете скачивать файлы