Loading...
Error

Скачать Звездные войны: Эпизод 6 – Возвращение Джедая / Star Wars: Episode VI - Return of the Jedi (Джордж Лукас / George Lucas) [1983, фантастика, фэнтези, приключения, BDRip] [DUB] (ОРТ) + [MVO] (РТР / Лазер Видео) торрент без регистрации

 
Статистика раздачи
Размер:  1,65 GB   |    Скачан:  2036 раз
Сидов:  1  [  0 KB/s  ]  
 
Автор Сообщение

leon030982

[] 

Звездные войны: Эпизод 6 – Возвращение Джедая / Star Wars: Episode VI - Return of the Jedi



Год выпуска: 1983
Страна: США
Жанр: фантастика, фэнтези, приключения
Продолжительность: 02:14:47
Перевод 1: Профессиональный (дублированный) [ОРТ]
Перевод 2: Профессиональный (многоголосый закадровый) [РТР / Лазер Видео]
Cубтитры: нет
Оригинальная аудиодорожка: нет

Режиссер: Джордж Лукас / George Lucas

В ролях: Марк Хэмилл, Харрисон Форд, Кэрри Фишер, Билли Ди Уильямс, Энтони Дэниелс, Питер Мейхью, Себастьян Шоу, Иэн МакДайармид, Фрэнк Оз, Джеймс Эрл Джонс, Дэвид Праус, Алек Гиннесс, Кенни Бейкер, Майкл Пеннингтон, Кеннет Колли и др.

Описание: В шестом эпизоде «Звездных войн» Дарт Вейдер создает вторую «Звезду Смерти». Он объединяет все силы зла, чтобы с помощью этого смертоносного оружия нанести последний сокрушительный удар по повстанцам и их союзникам.
Люк Скайуокер вместе с принцессой Лейей и верными дроидами R2D2 и C-3PO отправляется спасать своего друга Хана Соло, который попал в плен к отвратительному Джаббе Хатту — могущественному повелителю преступников.
Повстанцы высаживаются на планету Эндор, чтобы оттуда вместе с Люком и его отрядом предпринять последнюю атаку на Имперский флот, атаку, от которой зависит судьба Галактики. В этом эпизоде Люк Скайуокер и Дарт Вейдер встречаются в последний раз… ибо из поединка между отцом и сыном живым выйдет только один…




Качество видео: BDRip
Формат видео: AVI
Видео кодек: XviD
Аудио кодек: AC3
Видео: 720x304 (2.37:1), 23.976 fps, XviD build 65, 1353 kbps avg, 0.26 bit/pixel
Аудио 1: 48 kHz AC3 Dolby Digital 2/0 (L,R) ch 192.00 kbps avg
Аудио 2: 48 kHz AC3 Dolby Digital 2/0 (L,R) ch 192.00 kbps avg

E:\INTERNET\Star Wars.Episode VI.1983.BDRip.[DUB OPT] + [MVO PTP].avi
General
Complete name : E:\INTERNET\Star Wars.Episode VI.1983.BDRip.[DUB OPT] + [MVO PTP].avi
Format : AVI
Format/Info : Audio Video Interleave
File size : 1.65 GiB
Duration : 2h 14mn
Overall bit rate : 1 751 Kbps
Writing application : VirtualDubMod 1.5.10.3 (build 2550/release)
Writing library : VirtualDubMod build 2550/release
Video #0
ID : 0
Format : MPEG-4 Visual
Format profile : Advanced Simple@L5
Format settings, BVOP : 1
Format settings, QPel : No
Format settings, GMC : No warppoints
Format settings, Matrix : Custom
Codec ID : XVID
Codec ID/Hint : XviD
Duration : 2h 14mn
Bit rate : 1 353 Kbps
Width : 720 pixels
Height : 304 pixels
Display aspect ratio : 2.35:1
Frame rate : 23.976 fps
Color space : YUV
Chroma subsampling : 4:2:0
Bit depth : 8 bits
Scan type : Progressive
Compression mode : Lossy
Bits/(Pixel*Frame) : 0.258
Stream size : 1.27 GiB (77%)
Writing library : XviD 65
Audio #1
ID : 1
Format : AC-3
Format/Info : Audio Coding 3
Mode extension : CM (complete main)
Format settings, Endianness : Big
Codec ID : 2000
Duration : 2h 14mn
Bit rate mode : Constant
Bit rate : 192 Kbps
Channel(s) : 2 channels
Channel positions : Front: L R
Sampling rate : 48.0 KHz
Bit depth : 16 bits
Compression mode : Lossy
Stream size : 185 MiB (11%)
Alignment : Split accross interleaves
Interleave, duration : 42 ms (1.00 video frame)
Interleave, preload duration : 500 ms
Audio #2
ID : 2
Format : AC-3
Format/Info : Audio Coding 3
Mode extension : CM (complete main)
Format settings, Endianness : Big
Codec ID : 2000
Duration : 2h 14mn
Bit rate mode : Constant
Bit rate : 192 Kbps
Channel(s) : 2 channels
Channel positions : Front: L R
Sampling rate : 48.0 KHz
Bit depth : 16 bits
Compression mode : Lossy
Stream size : 185 MiB (11%)
Alignment : Split accross interleaves
Interleave, duration : 42 ms (1.00 video frame)
Interleave, preload duration : 500 ms



Скачать Звездные.войны.Эпизод.6.–.Возвращение.Джедая.Star.Wars.Episode.VI.-.Return.of.the.Jedi.(Джордж.Лукас.George.Lucas).[1983.фантастика.фэнтези.приключения.BDRip].[DUB].(ОРТ).+.[MVO].(РТР.Лазер.Видео).torrent без регистрации
Золото ЗОЛОТАЯ РАЗДАЧА! СКАЧАННОЕ НЕ ЗАСЧИТЫВАЕТСЯ! Золото
Дата: Зарегистрирован   [ Тип: внутренний ] Как тут cкачать?
MAGNET ссылка
MAGNET ссылка


Скачать .torrent

17 KB

Статус: проверено DHT
Скачан: торрент - 2036 раз, раздача полностью - 98 раз
Размер: 1,65 GB
Оценка:  5 (Голосов: 3)
Поблагодарили: 6
Поделиться ссылкой на эту раздачу с друзьями:
В контактеFacebookОдноклассникиTwitterLivejournalМой МирLiveinternet
 

 
Показать сообщения:    


Вы не можете начинать темы
Вы не можете отвечать на сообщения
Вы не можете редактировать свои сообщения
Вы не можете удалять свои сообщения
Вы не можете голосовать в опросах
Вы не можете прикреплять файлы к сообщениям
Вы можете скачивать файлы