Loading...
Error

Скачать Никогда не говори "никогда" / Never Say Never Again (Ирвин Кершнер /Irvin Kershner) [1983, приключения, боевик, фильм про шпионов, BDRip] [AVO] (Ю.Сербин) + [MVO] (Ленфильм) торрент без регистрации

 
Статистика раздачи
Размер:  2,19 GB   |    Скачан:  118 раз
Сидов:  1  [  0 KB/s  ]  
 
Автор Сообщение

leon030982

[] 


Никогда не говори "никогда" / Never Say Never Again


Год выпуска: 1983
Выпущено: Великобритания, США, Германия (ФРГ)
Жанр: приключения, боевик, фильм про шпионов
Продолжительность: 02:14:05
Перевод 1: Авторский (одноголосный, закадровый) [Юрий Сербин]
Перевод 2: Профессиональный (многоголосый, закадровый) [Ленфильм]
Субтитры: нет

Режиссер: Ирвин Кершнер /Irvin Kershner

В ролях: Шон Коннери, Клаус Мария Брандауэр, Макс фон Сюдов, Барбара Каррера, Ким Бейсингер, Берни Кейси, Алек МакКоуэн, Эдвард Фокс, Памела Сейлем, Роуэн Эткинсон

Описание: Используя уникальный набор оружия, Джеймс Бонд собственноручно стирает с лица земли армию врагов Её Величества. Но когда прелестная пленница втыкает нож в ребра 007, босс супершпиона решает, что настало время его лучшему агенту заняться оттачиванием своего смертельного мастерства. И вот Джеймс Бонд отправляется на лечебный курорт, а фильм «Никогда не говори никогда» готов вновь поражать ваше воображение трюками.





Качество: BDRip
Формат: AVI
Видео кодек: XviD
Аудио кодек: AC3
Видео: 720x304 (2.37:1), 23.976 fps, XviD build 50 ~1944 kbps avg, 0.37 bit/pixel
Аудио 1: 48 kHz, AC3 Dolby Digital, 2/0 (L,R) ch, ~192.00 kbps avg
Аудио 2: 48 kHz, AC3 Dolby Digital, 2/0 (L,R) ch, ~192.00 kbps avg

Дорожка с Ю. Сербиным синхронизирована, ремастирована и наложена ale_x2008 при помощи Adobe Audition, Sony Vegas и VirtualDubMod.
За оцифрованную с VHS дорожку благодарим - Fikaloid
Озвучка "Ленфильм" взята из раздачи SeRpUkHoViTcH
E:\INTERNET\Never Say Never Again.1983.BDRip.[AVO] (Serbin) + [MVO] (MosFilm).avi
General
Complete name : E:\INTERNET\Never Say Never Again.1983.BDRip.[AVO] (Serbin) + [MVO] (MosFilm).avi
Format : AVI
Format/Info : Audio Video Interleave
Format profile : OpenDML
File size : 2.19 GiB
Duration : 2h 14mn
Overall bit rate : 2 335 Kbps
Movie name : Never Say Never Again.1983.BDRip.[AVO] (Serbin) + [MVO] (MosFilm).avi
Writing application : VirtualDubMod 1.5.10.3 (build 2550/release)
Writing library : VirtualDubMod build 2550/release
Video #0
ID : 0
Format : MPEG-4 Visual
Format profile : Advanced Simple@L5
Format settings, BVOP : 1
Format settings, QPel : No
Format settings, GMC : No warppoints
Format settings, Matrix : Default (MPEG)
Codec ID : XVID
Codec ID/Hint : XviD
Duration : 2h 14mn
Bit rate : 1 933 Kbps
Width : 720 pixels
Height : 304 pixels
Display aspect ratio : 16:9
Original display aspect ratio : 2.35:1
Frame rate : 23.976 fps
Color space : YUV
Chroma subsampling : 4:2:0
Bit depth : 8 bits
Scan type : Progressive
Compression mode : Lossy
Bits/(Pixel*Frame) : 0.368
Stream size : 1.81 GiB (83%)
Writing library : XviD 1.2.1 (UTC 2008-12-04)
Audio #1
ID : 1
Format : AC-3
Format/Info : Audio Coding 3
Mode extension : CM (complete main)
Format settings, Endianness : Big
Codec ID : 2000
Duration : 2h 14mn
Bit rate mode : Constant
Bit rate : 192 Kbps
Channel(s) : 2 channels
Channel positions : Front: L R
Sampling rate : 48.0 KHz
Bit depth : 16 bits
Compression mode : Lossy
Stream size : 184 MiB (8%)
Alignment : Split accross interleaves
Interleave, duration : 42 ms (1.00 video frame)
Interleave, preload duration : 500 ms
Audio #2
ID : 2
Format : AC-3
Format/Info : Audio Coding 3
Mode extension : CM (complete main)
Format settings, Endianness : Big
Codec ID : 2000
Duration : 2h 13mn
Bit rate mode : Constant
Bit rate : 192 Kbps
Channel(s) : 2 channels
Channel positions : Front: L R
Sampling rate : 48.0 KHz
Bit depth : 16 bits
Compression mode : Lossy
Stream size : 184 MiB (8%)
Alignment : Split accross interleaves
Interleave, duration : 42 ms (1.00 video frame)
Interleave, preload duration : 500 ms





Скачать Никогда.не.говори."никогда".Never.Say.Never.Again.(Ирвин.Кершнер.Irvin.Kershner).[1983.приключения.боевик.фильм.про.шпионов.BDRip].[AVO].(Ю.Сербин).+.[MVO].(Ленфильм).torrent без регистрации
Золото ЗОЛОТАЯ РАЗДАЧА! СКАЧАННОЕ НЕ ЗАСЧИТЫВАЕТСЯ! Золото
Дата: Зарегистрирован   [ Тип: внутренний ] Как тут cкачать?
MAGNET ссылка
MAGNET ссылка


Скачать .torrent

11 KB

Статус: проверено DHT
Скачан: торрент - 118 раз, раздача полностью - 5 раз
Размер: 2,19 GB
Оценка:  5 (Голосов: 2)
Поблагодарили: 4
Поделиться ссылкой на эту раздачу с друзьями:
В контактеFacebookОдноклассникиTwitterLivejournalМой МирLiveinternet
 

 
Показать сообщения:    


Вы не можете начинать темы
Вы не можете отвечать на сообщения
Вы не можете редактировать свои сообщения
Вы не можете удалять свои сообщения
Вы не можете голосовать в опросах
Вы не можете прикреплять файлы к сообщениям
Вы можете скачивать файлы