Loading...
Error

Скачать Kaйдзи: Жить или пpoигpaть / Kaiji: Jinsei gyakuten gemu (Тоя Сато) [2009, драма, BDRip] [DVO]+[VO]+[Sub] торрент без регистрации

 
Статистика раздачи
Размер:  2,67 GB   |    Скачан:  110 раз
Сидов:  1  [  0 KB/s  ]  
 
Автор Сообщение

Marsianka

[] 

Название: Kaйдзи: Жить или пpoигpaть
Оригинальное название: Kaiji: Jinsei gyakuten gemu
Год выпуска: 2009
Жанр: драма
Выпущено: Япония, Kodansha Ltd., Nippon Television Network
Режиссер: Тоя Сато
В ролях: Мацуяма Кэнъити, Татсуя Фудживара, Теруюки Кагава, Таро Ямамото, Юрико Ёшитака, Юки Амами, Кен Митсуйши, Кэй Сато, Сузуки Матсуо, Сотаро Ясуда

О фильме: Ито Кайджи - безработный, бездельник, ворующий эмблемы дорогих машин и протыкающий шины. Но однообразная рутина меняется, когда к нему в дверь стучит человек в дорогом костюме. Гость представляется как некий Эндо, сборщик долгов. Причина его визита проста Кайджи должен деньги, выступив заверенным лицом своего коллеги, Фурухаты Такеши, который на одной из работ изначально должен был 300000 йен, но прошло время и долг возрос до астрономической величины в 3850000 йен, так как сам плательщик пропал, вся тяжесть долга падает на Кайджи. Но Эндо предлагает ему выход из данной ситуации: сесть на борт одного таинственного корабля, на котором такие же должники будут играть в азартные игры на деньги, взятые взаймы у учредителей. Это единственный шанс отчаявшихся людей вырваться из цепких лап нищеты или же это билет в один конец?!



Качество: BDRip
Видео: XviD, 1577 Kбит/с, 720x304
Аудио: Русский, японский (AC3, 6 ch, 448 Кбит/с)
Размер: 2.67 ГБ
Продолжительность: 02:10:07
Перевод: Любительский двухголосый, любительский одноголосый
Субтитры: Русские, английские
Общее
Полное имя : E:VideoKajdzi.Gitj.ili.proigratj.2009.XviD.BDRipKajdzi.Gitj.ili.proigratj.2009.eng.srt
Размер файла : 97,6 Кбайт

Общее
Полное имя : E:VideoKajdzi.Gitj.ili.proigratj.2009.XviD.BDRipKajdzi.Gitj.ili.proigratj.2009.Original.jpn.ac3
Формат : AC-3
Формат/Информация : Audio Coding 3
Размер файла : 417 Мбайт
Продолжительность : 2 ч. 10 м.
Режим общего битрейта : Постоянный
Общий поток : 448 Кбит/сек

Аудио
Формат : AC-3
Формат/Информация : Audio Coding 3
Расширение режима : CM (complete main)
Параметр Endianness формата : Big
Продолжительность : 2 ч. 10 м.
Вид битрейта : Постоянный
Битрейт : 448 Кбит/сек
Каналы : 6 каналов
Расположение каналов : Front: L C R, Side: L R, LFE
Частота : 48,0 КГц
Битовая глубина : 16 бит
Метод сжатия : С потерями
Размер потока : 417 Мбайт (100%)

Общее
Полное имя : E:VideoKajdzi.Gitj.ili.proigratj.2009.XviD.BDRipKajdzi.Gitj.ili.proigratj.2009.rus.srt
Размер файла : 137 Кбайт

Общее
Полное имя : E:VideoKajdzi.Gitj.ili.proigratj.2009.XviD.BDRipKajdzi.Gitj.ili.proigratj.2009.XviD.BDRip.avi
Формат : AVI
Формат/Информация : Audio Video Interleave
Профиль формата : OpenDML
Размер файла : 2,26 Гбайт
Продолжительность : 2 ч. 10 м.
Общий поток : 2490 Кбит/сек
Программа кодирования : VirtualDubMod 1.5.10.2 (build 2540/release)
Библиотека кодирования : VirtualDubMod build 2540/release

Видео
Идентификатор : 0
Формат : MPEG-4 Visual
Профиль формата : Advanced Simple@L5
Параметр BVOP формата : 1
Параметр QPel формата : Нет
Параметр GMC формата : Без точки перехода
Параметр матрицы формата : Default (H.263)
Режим смешивания : Сжатый битовый поток
Идентификатор кодека : XVID
Идентификатор кодека/Подсказка : XviD
Продолжительность : 2 ч. 10 м.
Битрейт : 1577 Кбит/сек
Ширина : 720 пикселей
Высота : 304 пикселя
Соотношение сторон : 2,35:1
Частота кадров : 23,976 кадра/сек
Цветовое пространство : YUV
Субдискретизация насыщенности : 4:2:0
Битовая глубина : 8 бит
Тип развёртки : Прогрессивная
Метод сжатия : С потерями
Бит/(Пиксели*Кадры) : 0.300
Размер потока : 1,43 Гбайт (63%)
Библиотека кодирования : XviD 1.2.1 (UTC 2008-12-04)

Аудио #1
Идентификатор : 1
Формат : AC-3
Формат/Информация : Audio Coding 3
Расширение режима : CM (complete main)
Параметр Endianness формата : Big
Идентификатор кодека : 2000
Продолжительность : 2 ч. 10 м.
Вид битрейта : Постоянный
Битрейт : 448 Кбит/сек
Каналы : 6 каналов
Расположение каналов : Front: L C R, Side: L R, LFE
Частота : 48,0 КГц
Битовая глубина : 16 бит
Метод сжатия : С потерями
Размер потока : 417 Мбайт (18%)
Выравнивание : Разделение по промежуткам
Продолжительность промежутка : 42 мс. (1,00 видеокадр)
Время предзагрузки промежутка : 500 мс.

Аудио #2
Идентификатор : 2
Формат : AC-3
Формат/Информация : Audio Coding 3
Расширение режима : CM (complete main)
Параметр Endianness формата : Big
Идентификатор кодека : 2000
Продолжительность : 2 ч. 10 м.
Вид битрейта : Постоянный
Битрейт : 448 Кбит/сек
Каналы : 6 каналов
Расположение каналов : Front: L C R, Side: L R, LFE
Частота : 48,0 КГц
Битовая глубина : 16 бит
Метод сжатия : С потерями
Размер потока : 417 Мбайт (18%)
Выравнивание : Разделение по промежуткам
Продолжительность промежутка : 42 мс. (1,00 видеокадр)
Время предзагрузки промежутка : 500 мс.



Скачать Kaйдзи.Жить.или.пpoигpaть.Kaiji.Jinsei.gyakuten.gemu.(Тоя.Сато).[2009.драма.BDRip].[DVO]+[VO]+[Sub].torrent без регистрации
Золото ЗОЛОТАЯ РАЗДАЧА! СКАЧАННОЕ НЕ ЗАСЧИТЫВАЕТСЯ! Золото
Дата: Зарегистрирован   [ Тип: внутренний ] Как тут cкачать?
MAGNET ссылка
MAGNET ссылка


Скачать .torrent

14 KB

Статус: проверено DHT
Скачан: торрент - 110 раз, раздача полностью - 7 раз
Размер: 2,67 GB
Оценка:  - (Голосов: 0)
Поблагодарили: 1
Поделиться ссылкой на эту раздачу с друзьями:
В контактеFacebookОдноклассникиTwitterLivejournalМой МирLiveinternet
 

 
Показать сообщения:    


Вы не можете начинать темы
Вы не можете отвечать на сообщения
Вы не можете редактировать свои сообщения
Вы не можете удалять свои сообщения
Вы не можете голосовать в опросах
Вы не можете прикреплять файлы к сообщениям
Вы можете скачивать файлы