Loading...
Error

Скачать Смерч / Twister (Ян Де Бонт / Jan de Bont) [1996, Боевик, триллер, драма, приключения, BDRip] [MVO] (ОРТ) + [AVO] (С.Визгунов) торрент без регистрации

 
Статистика раздачи
Размер:  1,46 GB   |    Скачан:  132 раза
Сидов:  1  [  0 KB/s  ]  
 
Автор Сообщение

leon030982

[] 

Смерч / Twister


Год выпуска: 1996
Страна: США
Жанр: боевик, триллер, драма, приключения
Продолжительность: 01:53:02
Перевод 1: Профессиональный (многоголосый закадровый) [ОРТ]
Перевод 2: Авторский (одноголосный, закадровый) [С.Визгунов]
Cубтитры: нет
Режиссер:
Ян Де Бонт / Jan de Bont
В ролях:
Хелен Хант, Билл Пэкстон, Кэри Элвис, Джэми Герц, Филип Сеймур Хоффман, Луис Смит, Алан Рак, Шон Уэйлен, Скотт Томсон, Тодд Филд, Джои Слотник, Вендл Джозефер, Джереми Дейвис, Зэк Гренье, Грегори Спорледер, Патрик Фишлер, Николас Сэдлер, Бен Вебер, Энтони Рэпп, Абрахам Бенруби, Джэйк Бьюзи, Мелани Хупес, Дж. Дин Линдсэй, Ричард Лайнбэк, Расти Швиммер, Алекса Вега, Тейлор Гилберт, Брюс Райт, Гари Инглэнд, Пол Дуглас, Саманта МакДональд, Дженнифер Л. Хэмилтон, Аннеке Де Бонт, Томас Э. Бентли, Дэррил Кокс, Бен Джексон, Бренда Уайтхед
Описание:
Рушащиеся, словно карточные домики, здания, разорванные линии электропередач, поднятые в воздух автомобили и животные, гибнущие люди… Мелкими и незначительными оказываются личные неурядицы героев перед лицом разбушевавшейся стихии.
В отчаянный поединок с грозным и малоизученным явлением природы вступают ученые-метеорологи.



Качество: BDRip
Формат: AVI
Видео кодек: XviD
Аудио кодек: АС3
Видео: XviD, 720x304 (2,35:1), 23.976 fps, 1453 kbps avg
Аудио #1: AC3, 48.0 khz, 2 ch, 192 kbps [ОРТ]
Аудио #2: AC3, 48.0 khz, 2 ch, 192 kbps [С.Визгунов]
Большое Спасибо:
alenavova - за предоставленные дорожки
akchurin.a2011 - за их синхронизацию
dalemake - за BDRip
E:\INTERNET\Смерч.avi
General
Complete name : E:\INTERNET\Смерч.avi
Format : AVI
Format/Info : Audio Video Interleave
File size : 1.46 GiB
Duration : 1h 53mn
Overall bit rate : 1 851 Kbps
Writing application : VirtualDubMod 1.5.10.3 | (build 2550/release)
Writing library : VirtualDubMod build 2550/release
Video #0
ID : 0
Format : MPEG-4 Visual
Format profile : Advanced Simple@L5
Format settings, BVOP : 1
Format settings, QPel : No
Format settings, GMC : No warppoints
Format settings, Matrix : Custom
Codec ID : XVID
Codec ID/Hint : XviD
Duration : 1h 53mn
Bit rate : 1 453 Kbps
Width : 720 pixels
Height : 304 pixels
Display aspect ratio : 2.35:1
Frame rate : 23.976 fps
Color space : YUV
Chroma subsampling : 4:2:0
Bit depth : 8 bits
Scan type : Progressive
Compression mode : Lossy
Bits/(Pixel*Frame) : 0.277
Stream size : 1.15 GiB (78%)
Writing library : XviD 1.2.1 (UTC 2008-12-04)
Audio #1
ID : 1
Format : AC-3
Format/Info : Audio Coding 3
Mode extension : CM (complete main)
Format settings, Endianness : Big
Codec ID : 2000
Duration : 1h 53mn
Bit rate mode : Constant
Bit rate : 192 Kbps
Channel(s) : 2 channels
Channel positions : Front: L R
Sampling rate : 48.0 KHz
Bit depth : 16 bits
Compression mode : Lossy
Stream size : 155 MiB (10%)
Alignment : Split accross interleaves
Interleave, duration : 42 ms (1.00 video frame)
Interleave, preload duration : 500 ms
Audio #2
ID : 2
Format : AC-3
Format/Info : Audio Coding 3
Mode extension : CM (complete main)
Format settings, Endianness : Big
Codec ID : 2000
Duration : 1h 53mn
Bit rate mode : Constant
Bit rate : 192 Kbps
Channel(s) : 2 channels
Channel positions : Front: L R
Sampling rate : 48.0 KHz
Bit depth : 16 bits
Compression mode : Lossy
Stream size : 155 MiB (10%)
Alignment : Split accross interleaves
Interleave, duration : 42 ms (1.00 video frame)
Interleave, preload duration : 500 ms




Скачать Смерч.Twister.(Ян.Де.Бонт.Jan.de.Bont).[1996.Боевик.триллер.драма.приключения.BDRip].[MVO].(ОРТ).+.[AVO].(С.Визгунов).torrent без регистрации
Золото ЗОЛОТАЯ РАЗДАЧА! СКАЧАННОЕ НЕ ЗАСЧИТЫВАЕТСЯ! Золото
Дата: Зарегистрирован   [ Тип: внутренний ] Как тут cкачать?
MAGNET ссылка
MAGNET ссылка


Скачать .torrent

15 KB

Статус: проверено DHT
Скачан: торрент - 132 раз, раздача полностью - 51 раз
Размер: 1,46 GB
Оценка:  5 (Голосов: 2)
Поблагодарили: 5
Поделиться ссылкой на эту раздачу с друзьями:
В контактеFacebookОдноклассникиTwitterLivejournalМой МирLiveinternet
 

 
Показать сообщения:    


Вы не можете начинать темы
Вы не можете отвечать на сообщения
Вы не можете редактировать свои сообщения
Вы не можете удалять свои сообщения
Вы не можете голосовать в опросах
Вы не можете прикреплять файлы к сообщениям
Вы можете скачивать файлы