Loading...
Error

Скачать Рассекая волны / Breaking the Waves (Ларс Фон Триер) [1996, драма, DVDRip-AVC] [MVO]+[Sub] торрент без регистрации

 
Статистика раздачи
Размер:  3,14 GB   |    Скачан:  110 раз
Сидов:  1  [  0 KB/s  ]  
 
Автор Сообщение

Marsianka

[] 

Информация о фильме
Название: Рассекая волны
Оригинальное название: Breaking the Waves
Год выхода: 1996
Жанр: драма
Режиссер: Ларс Фон Триер
В ролях: Эмили Уотсон, Стеллан Скарсгард, Катрин Картлидж, Жан-Марк Барр, Эдриан Роулинс, Сандра Воу

О фильме:
Бог дает каждому что-то, чтобы он стал лучше. Молодая девушка Бесс из отдаленной общины на северо-западе Шотландии влюбилась в хорошего парня - Яна, работающего на буровой установке в море. Несмотря на противостояние родственников, они женятся. Бесс просит Бога, чтобы Ян всегда был рядом с ней, и Ян возвращается к ней искалеченным после несчастного случая на буровой.
Что может сделать молодая женщина, чтобы ее любимый остался жив? На какую жертву может пойти?

Этот фильм, независимо от того, нравится он Вам или нет, действует, точно наркотик, и Вам понадобится много времени, чтобы прийти в себя после его эмоционального воздействия. Он буквально перевернет Вашу душу...

В фильме звучат песни Боба Дилана, Рода Стюарта, Леонарда Коэна, 'Deep Purple', Дэвида Боуи и Элтона Джона.



Страна: Франция, Дания, Норвегия, Швеция, Нидерланды
Студия: Argus Film Produktie, Arte, Canal+
Продолжительность: 02:32:22
Перевод: Профессиональный (многоголосый, закадровый) R5 Видеоимпульс

Файл
Кодек: h.264
Качество: DVDRip-AVC
Видео: 688x432 (2.25:1) @ 966x432 (анаморф), 25.000 fps, AVC, ~2308 Kbps, 0.311 bits/pixel
Звук:
Английский, 48.0 KHz, AC3, 6 ch, 448 Kbps
Русский, 48.0 KHz, AC3, 2 ch, 192 Kbps
Субтитры:
Русские, VobSub
Английские, VobSub
Общее
Уникальный идентификатор : 230580175106006926119870560747512199806 (0xAD78205A8FF3312FB82C0E94DB18FA7E)
Полное имя : D:FilmsRassekaya_volny.1996.DVDRip-AVC.mkv
Формат : Matroska
Версия формата : Version 4 / Version 2
Размер файла : 3,14 Гбайт
Продолжительность : 2 ч. 32 м.
Общий поток : 2951 Кбит/сек
Дата кодирования : UTC 2013-07-06 18:30:41
Программа кодирования : mkvmerge v6.2.0 ('Promised Land') built on Apr 28 2013 12:22:01
Библиотека кодирования : libebml v1.3.0 + libmatroska v1.4.0

Видео
Идентификатор : 1
Формат : AVC
Формат/Информация : Advanced Video Codec
Профиль формата : High@L4.1
Параметр CABAC формата : Да
Параметр ReFrames формата : 16 кадров
Идентификатор кодека : V_MPEG4/ISO/AVC
Продолжительность : 2 ч. 32 м.
Битрейт : 2308 Кбит/сек
Ширина : 688 пикселей
Высота : 432 пикселя
Соотношение сторон : 2,25:1
Соотношение сторон в оригинале : 2,25:1
Режим частоты кадров : Постоянный
Частота кадров : 25,000 кадров/сек
Цветовое пространство : YUV
Субдискретизация насыщенности : 4:2:0
Битовая глубина : 8 бит
Тип развёртки : Прогрессивная
Бит/(Пиксели*Кадры) : 0.311
Размер потока : 2,40 Гбайт (76%)
Библиотека кодирования : x264 core 133 r2334 a3ac64b
Настройки программы : cabac=1 / ref=16 / deblock=1:0:0 / analyse=0x3:0x133 / me=umh / subme=10 / psy=1 / psy_rd=1.05:0.10 / mixed_ref=1 / me_range=32 / chroma_me=1 / trellis=2 / 8x8dct=1 / cqm=0 / deadzone=21,11 / fast_pskip=0 / chroma_qp_offset=-3 / threads=8 / lookahead_threads=1 / sliced_threads=0 / nr=0 / decimate=0 / interlaced=0 / bluray_compat=0 / constrained_intra=0 / bframes=8 / b_pyramid=2 / b_adapt=2 / b_bias=0 / direct=3 / weightb=1 / open_gop=0 / weightp=2 / keyint=250 / keyint_min=25 / scenecut=40 / intra_refresh=0 / rc_lookahead=60 / rc=2pass / mbtree=0 / bitrate=2308 / ratetol=1.0 / qcomp=0.60 / qpmin=0 / qpmax=60 / qpstep=4 / cplxblur=20.0 / qblur=0.5 / vbv_maxrate=50000 / vbv_bufsize=62500 / nal_hrd=none / ip_ratio=1.40 / pb_ratio=1.30 / aq=1:1.00
Default : Нет
Forced : Нет
Коэффициенты матрицы : BT.601

Аудио #1
Идентификатор : 2
Формат : AC-3
Формат/Информация : Audio Coding 3
Расширение режима : CM (complete main)
Параметр Endianness формата : Big
Идентификатор кодека : A_AC3
Продолжительность : 2 ч. 32 м.
Вид битрейта : Постоянный
Битрейт : 448 Кбит/сек
Каналы : 6 каналов
Расположение каналов : Front: L C R, Side: L R, LFE
Частота : 48,0 КГц
Битовая глубина : 16 бит
Метод сжатия : С потерями
Размер потока : 488 Мбайт (15%)
Язык : English
Default : Нет
Forced : Нет

Аудио #2
Идентификатор : 3
Формат : AC-3
Формат/Информация : Audio Coding 3
Расширение режима : CM (complete main)
Параметр Endianness формата : Big
Идентификатор кодека : A_AC3
Продолжительность : 2 ч. 32 м.
Вид битрейта : Постоянный
Битрейт : 192 Кбит/сек
Каналы : 2 канала
Расположение каналов : Front: L R
Частота : 48,0 КГц
Битовая глубина : 16 бит
Метод сжатия : С потерями
Размер потока : 209 Мбайт (7%)
Язык : Russian
Default : Да
Forced : Нет

Текст #1
Идентификатор : 4
Формат : VobSub
Режим смешивания : zlib
Идентификатор кодека : S_VOBSUB
Идентификатор кодека/Информация : The same subtitle format used on DVDs
Язык : Russian
Default : Нет
Forced : Нет

Текст #2
Идентификатор : 5
Формат : VobSub
Режим смешивания : zlib
Идентификатор кодека : S_VOBSUB
Идентификатор кодека/Информация : The same subtitle format used on DVDs
Язык : English
Default : Нет
Forced : Нет

Меню
00:00:00.000 : en:Chapter 01
00:01:44.720 : en:Chapter 02
00:16:24.440 : en:Chapter 03
00:32:35.160 : en:Chapter 04
00:35:36.720 : en:Chapter 05
00:46:02.960 : en:Chapter 06
00:47:58.680 : en:Chapter 07
00:57:41.360 : en:Chapter 08
01:10:22.240 : en:Chapter 09
01:19:29.160 : en:Chapter 10
01:28:49.360 : en:Chapter 11
01:32:57.880 : en:Chapter 12
01:34:28.600 : en:Chapter 13
01:40:06.440 : en:Chapter 14
01:45:52.400 : en:Chapter 15
01:50:53.640 : en:Chapter 16
01:56:44.880 : en:Chapter 17
02:00:27.200 : en:Chapter 18
02:06:57.400 : en:Chapter 19
02:16:49.960 : en:Chapter 20
frame I:1228 Avg QP:15.65 size: 46403
frame P:61049 Avg QP:18.54 size: 20790
frame B:166269 Avg QP:20.02 size: 7878

Источник - Релиз Sandrew Metronome - лучшее неурезанное издание по версии DVD Beaver. + синхр. зв. дорожка от R5, субтитры от релиза XСhesser (Спасибо!)
Релиз от: Temperest



Скачать Рассекая.волны.Breaking.the.Waves.(Ларс.Фон.Триер).[1996.драма.DVDRip-AVC].[MVO]+[Sub].torrent без регистрации
Золото ЗОЛОТАЯ РАЗДАЧА! СКАЧАННОЕ НЕ ЗАСЧИТЫВАЕТСЯ! Золото
Дата: Зарегистрирован   [ Тип: внутренний ] Как тут cкачать?
MAGNET ссылка
MAGNET ссылка


Скачать .torrent

16 KB

Статус: проверено DHT
Скачан: торрент - 110 раз, раздача полностью - 7 раз
Размер: 3,14 GB
Оценка:  - (Голосов: 0)
Поблагодарили: 1
Поделиться ссылкой на эту раздачу с друзьями:
В контактеFacebookОдноклассникиTwitterLivejournalМой МирLiveinternet
 

 
Показать сообщения:    


Вы не можете начинать темы
Вы не можете отвечать на сообщения
Вы не можете редактировать свои сообщения
Вы не можете удалять свои сообщения
Вы не можете голосовать в опросах
Вы не можете прикреплять файлы к сообщениям
Вы можете скачивать файлы