Loading...
Error

Скачать Джеронимо: Американская легенда / Geronimo: An American Legend (Уолтер Хилл) [1993, вестерн, исторический, HDTVRip] [MVO]+[AVO] торрент без регистрации

 
Статистика раздачи
Размер:  2,17 GB   |    Скачан:  126 раз

Полного источника не было: 29 минут

 
Автор Сообщение

Marsianka

[] 

Информация о фильме
Название: Джеронимо: Американская легенда
Оригинальное название: Geronimo: An American Legend
Год выхода: 1993
Жанр: вестерн, исторический
Режиссер: Уолтер Хилл / Walter Hill
В ролях: Джейсон Патрик, Джин Хэкмен, Роберт Дювалл, Уэс Стади, Мэтт Дэймон, Родни А. Грант, Кевин Тай, Стив Ривис, Карлос Паломино, Виктор Аарон

О фильме:
Фильм основан на реальных событиях и в документальной манере повествует о последних годах жизни Джеронимо, легендарного предводителя апачей, и о том, какими средствами и какой ценой белые люди завоевывали Дикий Запад. 80-е годы XIX века. Под давлением правительства индейцы племени апачей переселяются в резервацию. Но не все могут приспособиться к такой жизни, и один из бунтарей Джеронимо. Много лет он сражался за свободу своего народа, и удержать его в резервации не может никакая сила особенно когда бледнолицые начинают покушаться не только свободу жительства, но и на обычаи индейцев. С полутора сотнями верных бойцов он уходит из резервации, и в правительстве этот шаг воспринимают как начало бунта. На поимку Джеронимо отправляется отряд бригадного генерала Джеймса Крука.



Страна: США
Продолжительность: 01:50:24
Перевод: Профессиональный (многоголосый закадровый) |1 канал|, Авторский (одноголосый) |А. Гаврилов|

Файл
Кодек: XviD
Качество: HDTVRip с |HDTV 1080i|
Видео: 720x400 , 25.000 fps, XviD build 73, 2224 kbps
Аудио 1: 48 kHz, AC3 Dolby Digital, 2/0 (L,R) ch, 192 kbps |Russian_MVO|
Аудио 2: 48 kHz, AC3 Dolby Digital, 3/2 (L,C,R,l,r) + LFE ch, 384.00 kbps avg |Russian_AVO - А.Гаврилов|
Общее
Полное имя : Geronimo.An.American.Legend.1993.HDTVRip.avi
Формат : AVI
Формат/Информация : Audio Video Interleave
Профиль формата : OpenDML
Размер файла : 2,17 Гбайт
Продолжительность : 1 ч. 50 м.
Общий поток : 2819 Кбит/сек
Программа кодирования : VirtualDubMod 1.5.10.2 (build 2542/release)
Библиотека кодирования : VirtualDubMod build 2542/release

Видео
Идентификатор : 0
Формат : MPEG-4 Visual
Профиль формата : Advanced Simple@L5
Параметр BVOP формата : 2
Параметр QPel формата : Нет
Параметр GMC формата : Без точки перехода
Параметр матрицы формата : Выборочная
Идентификатор кодека : XVID
Идентификатор кодека/Подсказка : XviD
Продолжительность : 1 ч. 50 м.
Битрейт : 2224 Кбит/сек
Ширина : 720 пикс.
Высота : 400 пикс.
Соотношение сторон : 16:9
Частота кадров : 25,000 кадр/сек
Цветовое пространство : YUV
Подвыборка цветности : 4:2:0
Битовая глубина : 8 бит
Тип развёртки : Прогрессивная
Метод сжатия : С потерями
Бит/(Пиксели*Кадры) : 0.309
Размер потока : 1,72 Гбайт (79%)
Библиотека кодирования : XviD 73

Аудио #1
Идентификатор : 1
Формат : AC-3
Формат/Информация : Audio Coding 3
Расширение режима : CM (complete main)
Идентификатор кодека : 2000
Продолжительность : 1 ч. 50 м.
Вид битрейта : Постоянный
Битрейт : 192 Кбит/сек
Канал(ы) : 2 канала(ов)
Расположение каналов : Front: L R
Частота : 48,0 КГц
Битовая глубина : 16 бит
Метод сжатия : С потерями
Задержка видео : 4 мс.
Размер потока : 152 Мбайт (7%)
Выравнивание : Разделение по промежуткам
Продолжительность промежутка : 40 мс. (1,00 видеокадр)
Время предзагрузки промежутка : 500 ms

Аудио #2
Идентификатор : 2
Формат : AC-3
Формат/Информация : Audio Coding 3
Расширение режима : CM (complete main)
Идентификатор кодека : 2000
Продолжительность : 1 ч. 50 м.
Вид битрейта : Постоянный
Битрейт : 384 Кбит/сек
Канал(ы) : 6 канала(ов)
Расположение каналов : Front: L C R, Side: L R, LFE
Частота : 48,0 КГц
Битовая глубина : 16 бит
Метод сжатия : С потерями
Размер потока : 303 Мбайт (14%)
Выравнивание : Разделение по промежуткам
Продолжительность промежутка : 40 мс. (1,00 видеокадр)
Время предзагрузки промежутка : 500 ms
Релиз от: Leon-masl



Скачать Джеронимо.Американская.легенда.Geronimo.An.American.Legend.(Уолтер.Хилл).[1993.вестерн.исторический.HDTVRip].[MVO]+[AVO].torrent без регистрации
Золото ЗОЛОТАЯ РАЗДАЧА! СКАЧАННОЕ НЕ ЗАСЧИТЫВАЕТСЯ! Золото
Дата: Зарегистрирован   [ Тип: внутренний ] Как тут cкачать?
MAGNET ссылка
MAGNET ссылка


Скачать .torrent

12 KB

Статус: проверено DHT
Скачан: торрент - 126 раз, раздача полностью - 17 раз
Размер: 2,17 GB
Оценка:  - (Голосов: 0)
Поблагодарили: 1
Поделиться ссылкой на эту раздачу с друзьями:
В контактеFacebookОдноклассникиTwitterLivejournalМой МирLiveinternet
 

 
Показать сообщения:    


Вы не можете начинать темы
Вы не можете отвечать на сообщения
Вы не можете редактировать свои сообщения
Вы не можете удалять свои сообщения
Вы не можете голосовать в опросах
Вы не можете прикреплять файлы к сообщениям
Вы можете скачивать файлы