Loading...
Error

Скачать Револьвер / Revolver (Гай Ричи) [2005, триллер, драма, криминал, детектив, BDRip] [1080p] [Dub]+[Original] торрент без регистрации

 
Статистика раздачи
Размер:  7,76 GB   |    Скачан:  190 раз
Сидов:  1  [  0 KB/s  ]  
 
Автор Сообщение

МихаНЕзатор

[] 

Информация о фильме
Название: Револьвер
Оригинальное название: Revolver
Год выхода: 2005
Жанр: триллер, драма, криминал, детектив
Режиссер: Гай Ричи

В ролях: Джейсон Стэтхэм, Рэй Лиотта, Винсент Пасторе, Андре Бенджамин, Теренс Мэйнард, Эндрю Ховард, Марк Стронг, Франческа Аннис

О фильме: Семь лет назад Джек влип в неприятную историю. По всему городу шли нелегальные азартные игры игры без правил, полные опасности, но приносящие хороший доход. Организовывал и присматривал за этими играми преступный босс Мака и его люди. Накануне одной «большой игры», Мака потерял своего парня, и его люди, узнав о Джеке Грине, решили, что он сможет подойти на замену. Грин, выслушав предложение ребят Маки, отказался, но ребята не отступили и стали давить на брата Джека и на его семью. Грин был вынужден сесть за карточный стол, чтобы брата с семьёй оставили в покое. Игру он выиграл. И с этого все началось



Выпущено: Франция, Великобритания
Продолжительность: 01:51:21
Перевод: Дублированный + Оригинал

Файл
Кодек: x264
Качество: BDRip 1080p
Видео: 1920x816, 9082 Kbps, 23.976 fps
Аудио #1: AC-3, 6 ch, 448 kbps (Rus)
Аудио #2: AC-3, 6 ch, 448 kbps (Eng)
Субтитры: русские (полные, форсированные), английские
Общее
Уникальный идентификатор : 190121043872472370100636845941726112552 (0x8F07FB2C5534BE6F90C1BFB5838BEB28)
Полное имя : Револьвер.2005.BDRip.1080p.Rus.Eng.mkv
Формат : Matroska
Версия формата : Version 2
Размер файла : 7,76 Гбайт
Продолжительность : 1 ч. 51 м.
Общий поток : 9983 Кбит/сек
Название фильма : Револьвер.2005
Дата кодирования : UTC 2013-07-08 17:15:54
Программа кодирования : mkvmerge v5.8.0 ('No Sleep / Pillow') built on Sep 2 2012 15:37:04
Библиотека кодирования : libebml v1.2.3 + libmatroska v1.3.0

Видео
Идентификатор : 1
Формат : AVC
Формат/Информация : Advanced Video Codec
Профиль формата : High@L4.1
Параметр CABAC формата : Да
Параметр ReFrames формата : 5 кадров
Идентификатор кодека : V_MPEG4/ISO/AVC
Продолжительность : 1 ч. 51 м.
Битрейт : 9082 Кбит/сек
Ширина : 1920 пикселей
Высота : 816 пикселей
Соотношение сторон : 2,35:1
Режим частоты кадров : Постоянный
Частота кадров : 23,976 кадра/сек
Цветовое пространство : YUV
Субдискретизация насыщенности : 4:2:0
Битовая глубина : 8 бит
Тип развёртки : Прогрессивная
Бит/(Пиксели*Кадры) : 0.242
Размер потока : 6,91 Гбайт (89%)
Заголовок : Rip by Boriy
Библиотека кодирования : x264 core 133 r2334 a3ac64b
Настройки программы : cabac=1 / ref=5 / deblock=1:-3:-3 / analyse=0x3:0x113 / me=umh / subme=11 / psy=1 / psy_rd=1.00:0.10 / mixed_ref=1 / me_range=32 / chroma_me=1 / trellis=2 / 8x8dct=1 / cqm=0 / deadzone=21,11 / fast_pskip=0 / chroma_qp_offset=-2 / threads=12 / lookahead_threads=1 / sliced_threads=0 / nr=0 / decimate=0 / interlaced=0 / bluray_compat=0 / constrained_intra=0 / bframes=6 / b_pyramid=2 / b_adapt=2 / b_bias=0 / direct=3 / weightb=1 / open_gop=0 / weightp=2 / keyint=240 / keyint_min=23 / scenecut=40 / intra_refresh=0 / rc=2pass / mbtree=0 / bitrate=9082 / ratetol=1.0 / qcomp=0.60 / qpmin=0 / qpmax=69 / qpstep=4 / cplxblur=20.0 / qblur=0.5 / ip_ratio=1.40 / pb_ratio=1.30 / aq=1:0.80
Язык : English
Default : Да
Forced : Нет

Аудио #1
Идентификатор : 2
Формат : AC-3
Формат/Информация : Audio Coding 3
Расширение режима : CM (complete main)
Параметр Endianness формата : Big
Идентификатор кодека : A_AC3
Продолжительность : 1 ч. 51 м.
Вид битрейта : Постоянный
Битрейт : 448 Кбит/сек
Каналы : 6 каналов
Расположение каналов : Front: L C R, Side: L R, LFE
Частота : 48,0 КГц
Битовая глубина : 16 бит
Метод сжатия : С потерями
Размер потока : 357 Мбайт (4%)
Заголовок : Дубляж
Язык : Russian
Default : Да
Forced : Нет

Аудио #2
Идентификатор : 3
Формат : AC-3
Формат/Информация : Audio Coding 3
Расширение режима : CM (complete main)
Параметр Endianness формата : Big
Идентификатор кодека : A_AC3
Продолжительность : 1 ч. 51 м.
Вид битрейта : Постоянный
Битрейт : 448 Кбит/сек
Каналы : 6 каналов
Расположение каналов : Front: L C R, Side: L R, LFE
Частота : 48,0 КГц
Битовая глубина : 16 бит
Метод сжатия : С потерями
Размер потока : 357 Мбайт (4%)
Заголовок : Оригинал
Язык : English
Default : Нет
Forced : Нет

Текст #1
Идентификатор : 4
Формат : UTF-8
Идентификатор кодека : S_TEXT/UTF8
Идентификатор кодека/Информация : UTF-8 Plain Text
Заголовок : Forced
Язык : Russian
Default : Да
Forced : Да

Текст #2
Идентификатор : 5
Формат : UTF-8
Идентификатор кодека : S_TEXT/UTF8
Идентификатор кодека/Информация : UTF-8 Plain Text
Заголовок : Full
Язык : Russian
Default : Нет
Forced : Нет

Текст #3
Идентификатор : 6
Формат : UTF-8
Идентификатор кодека : S_TEXT/UTF8
Идентификатор кодека/Информация : UTF-8 Plain Text
Заголовок : Full
Язык : English
Default : Нет
Forced : Нет

Меню
00:00:00.000 : :Chapter 1
00:06:59.752 : :Chapter 2
00:16:00.876 : :Chapter 3
00:25:00.749 : :Chapter 4
00:33:23.918 : :Chapter 5
00:40:53.909 : :Chapter 6
00:48:10.053 : :Chapter 7
00:56:21.127 : :Chapter 8
01:05:12.575 : :Chapter 9
01:14:13.657 : :Chapter 10
01:21:54.242 : :Chapter 11
01:30:25.128 : :Chapter 12
01:35:34.437 : :Chapter 13
01:40:17.970 : :Chapter 14
01:44:25.467 : :Chapter 15
01:47:47.836 : :Chapter 16
01:51:20.757 : :Chapter 17



Скачать Револьвер.Revolver.(Гай.Ричи).[2005.триллер.драма.криминал.детектив.BDRip].[1080p].[Dub]+[Original].torrent без регистрации
Золото ЗОЛОТАЯ РАЗДАЧА! СКАЧАННОЕ НЕ ЗАСЧИТЫВАЕТСЯ! Золото
Дата: Зарегистрирован   [ Тип: внутренний ] Как тут cкачать?
MAGNET ссылка
MAGNET ссылка


Скачать .torrent

39 KB

Статус: проверено DHT
Скачан: торрент - 190 раз, раздача полностью - 274 раз
Размер: 7,76 GB
Оценка:  5 (Голосов: 3)
Поблагодарили: 3
Поделиться ссылкой на эту раздачу с друзьями:
В контактеFacebookОдноклассникиTwitterLivejournalМой МирLiveinternet
 

 
Показать сообщения:    


Вы не можете начинать темы
Вы не можете отвечать на сообщения
Вы не можете редактировать свои сообщения
Вы не можете удалять свои сообщения
Вы не можете голосовать в опросах
Вы не можете прикреплять файлы к сообщениям
Вы можете скачивать файлы