Loading...
Error

Скачать Бешеный пес Колл / Mad Dog Coll (Берт Бэлабан) [1961, драма, криминал, биография, DVDRip] [MVO]+[Оригинал] торрент без регистрации

 
Статистика раздачи
Размер:  1,36 GB   |    Скачан:  108 раз
Сидов:  1  [  0 KB/s  ]  
 
Автор Сообщение

Marsianka

[] 

Страна: США
Производство: Thalia Productions Inc
Жанр: драма, криминал, биография
Год выпуска: 1961

Продолжительность: 01:26:51

Перевод: Профессиональный многоголосый закадровый

Оригинальная аудиодорожка: Английская

Cубтитры: Нет

Режиссер: Берт Бэлабан

В ролях: Джон Дэвис Чэндлер, Кэй Даблдэй, Брук Хейуорд, Нил Нэфью, Джерри Орбак, Винсент Гардения, Телли Савалас, Гленн Кэннон, Т.Дж. Кастроново, Леонардо Чимино



Описание: История Винсента Колла по кличке «Бешеный пес», одного из самых беспощадных американских гангстеров 1930-х. Выходец из семьи бедных ирландских эмигрантов, Винсент Колл рвался к власти и деньгам, дающим возможность иметь женщин и приобрести благосостояние. Жестокие и ловкие, ребята не обращали внимания ни на принципы, ни на предрассудки, и это прославило их как самых безжалостных и кровавых гангстеров времен «сухого» закона. Винсент Колл был ирландцем по национальности, поэтому его считали чужаком в гангстерской итальянской среде, что и наложило свой отпечаток на его «поведение». По руководительским способностям он превосходил многих, но именно из-за не итальянского происхождения его всегда держали «в запасе» и не допускали продвижения «наверх» в Коза-Ностре.



Исходник: DVD5 R5

Тип релиза: DVDRip

Контейнер: AVI

Видео: 704x384 (1.83:1), 23.976 fps, XviD MPEG-4 ~1818 kbps avg, 0.28 bit/pixel
Аудио: #1: 48 kHz, AC3 2.0 ~192.00 kbps avg (RUS)
Аудио: #2: 48 kHz, AC3 2.0 ~224.00 kbps avg (ENG)
Общее
Полное имя : D:1АААБешеный пес Колл.avi
Формат : AVI
Формат/Информация : Audio Video Interleave
Размер файла : 1,36 Гбайт
Продолжительность : 1 ч. 26 м.
Общий поток : 2249 Кбит/сек
Программа кодирования : VirtualDubMod 1.5.10.2 (build 2540/release)
Библиотека кодирования : VirtualDubMod build 2540/release

Видео
Идентификатор : 0
Формат : MPEG-4 Visual
Профиль формата : Advanced Simple@L5
Параметр BVOP формата : 2
Параметр QPel формата : Нет
Параметр GMC формата : Без точки перехода
Параметр матрицы формата : Default (MPEG)
Режим смешивания : Сжатый битовый поток
Идентификатор кодека : XVID
Идентификатор кодека/Подсказка : XviD
Продолжительность : 1 ч. 26 м.
Битрейт : 1819 Кбит/сек
Ширина : 704 пикселя
Высота : 384 пикселя
Соотношение сторон : 1,85:1
Частота кадров : 23,976 кадра/сек
Цветовое пространство : YUV
Субдискретизация насыщенности : 4:2:0
Битовая глубина : 8 бит
Тип развёртки : Прогрессивная
Метод сжатия : С потерями
Бит/(Пиксели*Кадры) : 0.281
Размер потока : 1,10 Гбайт (81%)
Библиотека кодирования : XviD 1.2.1 (UTC 2008-12-04)

Аудио #1
Идентификатор : 1
Формат : AC-3
Формат/Информация : Audio Coding 3
Расширение режима : CM (complete main)
Параметр Endianness формата : Big
Идентификатор кодека : 2000
Продолжительность : 1 ч. 26 м.
Вид битрейта : Постоянный
Битрейт : 192 Кбит/сек
Каналы : 2 канала
Расположение каналов : Front: L R
Частота : 48,0 КГц
Битовая глубина : 16 бит
Метод сжатия : С потерями
Задержка видео : 24 мс.
Размер потока : 119 Мбайт (9%)
Выравнивание : Разделение по промежуткам
Продолжительность промежутка : 42 мс. (1,00 видеокадр)
Время предзагрузки промежутка : 500 мс.

Аудио #2
Идентификатор : 2
Формат : AC-3
Формат/Информация : Audio Coding 3
Расширение режима : CM (complete main)
Параметр Endianness формата : Big
Идентификатор кодека : 2000
Продолжительность : 1 ч. 26 м.
Вид битрейта : Постоянный
Битрейт : 224 Кбит/сек
Каналы : 2 канала
Расположение каналов : Front: L R
Частота : 48,0 КГц
Битовая глубина : 16 бит
Метод сжатия : С потерями
Задержка видео : 24 мс.
Размер потока : 139 Мбайт (10%)
Выравнивание : Разделение по промежуткам
Продолжительность промежутка : 42 мс. (1,00 видеокадр)
Время предзагрузки промежутка : 500 мс.
Релиз группа:

Автор рипа:



Скачать Бешеный.пес.Колл.Mad.Dog.Coll.(Берт.Бэлабан).[1961.драма.криминал.биография.DVDRip].[MVO]+[Оригинал].torrent без регистрации
Золото ЗОЛОТАЯ РАЗДАЧА! СКАЧАННОЕ НЕ ЗАСЧИТЫВАЕТСЯ! Золото
Дата: Зарегистрирован   [ Тип: внутренний ] Как тут cкачать?
MAGNET ссылка
MAGNET ссылка


Скачать .torrent

14 KB

Статус: проверено DHT
Скачан: торрент - 108 раз, раздача полностью - 0 раз
Размер: 1,36 GB
Оценка:  - (Голосов: 0)
Поблагодарили: 1
Поделиться ссылкой на эту раздачу с друзьями:
В контактеFacebookОдноклассникиTwitterLivejournalМой МирLiveinternet
 

 
Показать сообщения:    


Вы не можете начинать темы
Вы не можете отвечать на сообщения
Вы не можете редактировать свои сообщения
Вы не можете удалять свои сообщения
Вы не можете голосовать в опросах
Вы не можете прикреплять файлы к сообщениям
Вы можете скачивать файлы