Loading...
Error

Скачать Побег из Шоушенка / The Shawshank Redemption (Фрэнк Дарабонт) [1994, драма, триллер, BDRip-AVC] [MVO] торрент без регистрации

 
Статистика раздачи
Размер:  1,45 GB   |    Скачан:  230 раз
Сидов:  1  [  0 KB/s  ]  
 
Автор Сообщение

Marsianka

[] 

Побег из Шоушенка / The Shawshank Redemption

«Страх - это кандалы. Надежда - это свобода.»
Страна: США
Жанр: драма, триллер
Год выпуска: 1994
Продолжительность: 02:22:33
Перевод: Профессиональный (многоголосый, закадровый) Киномания
Cубтитры: нет
Оригинальная аудиодорожка: нет

Режиссер: Фрэнк Дарабонт / Frank Darabont

В ролях: Тим Роббинс, Уильям Сэдлер, Морган Фриман, Боб Гантон, Клэнси Браун, Гил Беллоуз, Марк Болстон, Джеффри Де Манн, Ларри Бранденбург, Брайан Либби, Нил Гинтоли, Джеймс Уитмор, Пол МакКрэйн, Джозеф Раньо, Джуд Чикколелла, Дэвид Прувэл
Описание: Энди Дюфрейн, вице-президент солидного банка, приговаривается к двум пожизненным заключениям по обвинению в убийстве жены и ее любовника. Он отбывает заключение в тюрьме Шоушенк, где проходит все круги ада, проявляя недюжинное мужество, упорство и хладнокровие.



Качество видео: BDRip-AVC
Формат видео: MKV
Видео кодек: H264
Аудио кодек: AC3
Видео: 864x3488 (16:9), 23.976 fps, H264, 1 265 Kbps, 0.125 bit/pixel
Аудио: 48 kHz, AC3 Dolby Digital, 2/0 (L,R) ch, ~192.00 kbps avg
Раздача от:
D:Shawshank.Redemption.1994.BDRip-AVC.by_dexter_lex.mkv
General
Unique ID : 212867381960409832507994569001532021106 (0xA024C43A014B1E4AA20F71E84CFA5972)
Complete name : D:Shawshank.Redemption.1994.BDRip-AVC.by_dexter_lex.mkv
Format : Matroska
Format version : Version 2
File size : 1.45 GiB
Duration : 2h 22mn
Overall bit rate : 1 458 Kbps
Encoded date : UTC 2013-07-08 16:44:30
Writing application : mkvmerge v5.6.0 ('Kenya Kane') built on Jun 29 2012 15:01:44
Writing library : libebml v1.2.3 + libmatroska v1.3.0
Video #1
ID : 1
Format : AVC
Format/Info : Advanced Video Codec
Format profile : High@L4.1
Format settings, CABAC : Yes
Format settings, ReFrames : 9 frames
Codec ID : V_MPEG4/ISO/AVC
Duration : 2h 22mn
Bit rate : 1 265 Kbps
Width : 864 pixels
Height : 488 pixels
Display aspect ratio : 16:9
Frame rate : 23.976 fps
Color space : YUV
Chroma subsampling : 4:2:0
Bit depth : 8 bits
Scan type : Progressive
Bits/(Pixel*Frame) : 0.125
Stream size : 1.23 GiB (85%)
Writing library : x264 core 125 r2200 999b753
Encoding settings : cabac=1 / ref=9 / deblock=1:-2:-2 / analyse=0x3:0x113 / me=umh / subme=10 / psy=1 / psy_rd=1.00:0.15 / mixed_ref=1 / me_range=32 / chroma_me=1 / trellis=1 / 8x8dct=1 / cqm=0 / deadzone=21,11 / fast_pskip=0 / chroma_qp_offset=-3 / threads=6 / lookahead_threads=1 / sliced_threads=0 / nr=0 / decimate=1 / interlaced=0 / bluray_compat=0 / constrained_intra=0 / bframes=9 / b_pyramid=2 / b_adapt=1 / b_bias=0 / direct=3 / weightb=1 / open_gop=0 / weightp=2 / keyint=240 / keyint_min=23 / scenecut=40 / intra_refresh=0 / rc_lookahead=60 / rc=2pass / mbtree=1 / bitrate=1265 / ratetol=1.0 / qcomp=0.60 / qpmin=0 / qpmax=69 / qpstep=4 / cplxblur=20.0 / qblur=0.5 / ip_ratio=1.40 / aq=1:1.00
Default : Yes
Forced : No
Audio #2
ID : 2
Format : AC-3
Format/Info : Audio Coding 3
Mode extension : CM (complete main)
Codec ID : A_AC3
Duration : 2h 22mn
Bit rate mode : Constant
Bit rate : 192 Kbps
Channel(s) : 2 channels
Channel positions : Front: L R
Sampling rate : 48.0 KHz
Bit depth : 16 bits
Compression mode : Lossy
Stream size : 196 MiB (13%)
Default : Yes
Forced : No



Скачать Побег.из.Шоушенка.The.Shawshank.Redemption.(Фрэнк.Дарабонт).[1994.драма.триллер.BDRip-AVC].[MVO].torrent без регистрации
Золото ЗОЛОТАЯ РАЗДАЧА! СКАЧАННОЕ НЕ ЗАСЧИТЫВАЕТСЯ! Золото
Дата: Зарегистрирован   [ Тип: внутренний ] Как тут cкачать?
MAGNET ссылка
MAGNET ссылка


Скачать .torrent

15 KB

Статус: проверено DHT
Скачан: торрент - 230 раз, раздача полностью - 539 раз
Размер: 1,45 GB
Оценка:  5 (Голосов: 2)
Поблагодарили: 4
Поделиться ссылкой на эту раздачу с друзьями:
В контактеFacebookОдноклассникиTwitterLivejournalМой МирLiveinternet
 

 
Показать сообщения:    


Вы не можете начинать темы
Вы не можете отвечать на сообщения
Вы не можете редактировать свои сообщения
Вы не можете удалять свои сообщения
Вы не можете голосовать в опросах
Вы не можете прикреплять файлы к сообщениям
Вы можете скачивать файлы