Loading...
Error

Скачать Уилфред / Wilfred (03x01-06) (Рэндолл Эйнхорн, Виктор Нелли мл.) [2013, черная комедия, ситком, WEB-DL] [1080p] [DVO (Кубик в Кубе)] торрент без регистрации

 
Статистика раздачи
Размер:  5,56 GB   |    Скачан:  5145 раз
Сидов:  1  [  0 KB/s  ]  
 
Автор Сообщение

МихаНЕзатор

[] 

Информация о фильме
Название: Уилфред
Оригинальное название: Wilfred
Год выхода: 2013
Жанр: черная комедия, ситком
Режиссер: Рэндолл Эйнхорн, Виктор Нелли мл.

В ролях: Элайджа Вуд, Джейсон Гэнн, Фиона Габелманн, Дориан Браун, Крис Клейн, Джерри Бедноб, Жан-Поль Ману, Родни То, Этан Сапли, Чарльз Истен, Э.Дж. Каллахан, Кэри Коулмэн, Эллиа Инглиш, Рэйчел Стерлинг, Эл Сапьенза, Кэтерин Диск, Мэттью Каминский, Тимоти Э. Гудвин

О фильме: Сюжет строится вокруг молодого человека по имени Райан, который ухаживает за девушкой хозяйкой пса по кличке Уилфред. Пес и молодой человек не нравятся друг другу с первого взгляда. Дело осложняется тем, что вместо собаки Райан видит человека в собачьем костюме, который с ним разговаривает.



Страна: США
Продолжительность: 4 x ~ 00:22:00
Перевод: Профессиональный двухголосый, Кубик в Кубе

Файл
Кодек: MPEG-4 AVC
Качество: WEB-DL 1080p
Видео: ~ 5000 Кбит/с, 1912x1072, 23.976 кадр/с
Звук: Русский, английский (AC3, 6 ch, 384 Кбит/с)

24.07.2013 г. торент обновлён, добавлена 5-6 серия!

Релиз от:

Wilfred.S03.WEB-DL.1080p.CasStudioTVWilfred.S03E03.WEB-DL.1080p.CasStudioTV.mkv
General
Unique ID : 201348960810373554423310227272905765916 (0x977A6637D7C85C3EAAC841A6A2ABB41C)
Complete name : Wilfred.S03.WEB-DL.1080p.CasStudioTVWilfred.S03E03.WEB-DL.1080p.CasStudioTV.mkv
Format : Matroska
Format version : Version 2
File size : 956 MiB
Duration : 22mn 53s
Overall bit rate : 5 839 Kbps
Encoded date : UTC 2013-07-04 09:50:27
Writing application : mkvmerge v6.2.0 ('Promised Land') built on Apr 28 2013 12:22:01
Writing library : libebml v1.3.0 + libmatroska v1.4.0
Video #1
ID : 1
Format : AVC
Format/Info : Advanced Video Codec
Format profile : High@L4.0
Format settings, CABAC : Yes
Format settings, ReFrames : 4 frames
Codec ID : V_MPEG4/ISO/AVC
Duration : 22mn 53s
Bit rate : 4 955 Kbps
Width : 1 912 pixels
Height : 1 072 pixels
Display aspect ratio : 16:9
Frame rate mode : Constant
Frame rate : 23.976 fps
Color space : YUV
Chroma subsampling : 4:2:0
Bit depth : 8 bits
Scan type : Progressive
Bits/(Pixel*Frame) : 0.101
Stream size : 811 MiB (85%)
Language : English
Default : Yes
Forced : No
Color primaries : BT.709
Transfer characteristics : BT.709
Matrix coefficients : BT.709
Audio #2
ID : 2
Format : AC-3
Format/Info : Audio Coding 3
Mode extension : CM (complete main)
Format settings, Endianness : Big
Codec ID : A_AC3
Duration : 22mn 53s
Bit rate mode : Constant
Bit rate : 384 Kbps
Channel(s) : 6 channels
Channel positions : Front: L C R, Side: L R, LFE
Sampling rate : 48.0 KHz
Bit depth : 16 bits
Compression mode : Lossy
Stream size : 62.9 MiB (7%)
Title : кубики
Language : Russian
Default : Yes
Forced : No
Audio #3
ID : 3
Format : AC-3
Format/Info : Audio Coding 3
Mode extension : CM (complete main)
Format settings, Endianness : Big
Codec ID : A_AC3
Duration : 22mn 53s
Bit rate mode : Constant
Bit rate : 384 Kbps
Channel(s) : 6 channels
Channel positions : Front: L C R, Side: L R, LFE
Sampling rate : 48.0 KHz
Bit depth : 16 bits
Compression mode : Lossy
Stream size : 62.9 MiB (7%)
Title : оригинал
Language : English
Default : No
Forced : No



Скачать Уилфред.Wilfred.(03x01-06).(Рэндолл.Эйнхорн.Виктор.Нелли.мл.).[2013.черная.комедия.ситком.WEB-DL].[1080p].[DVO.(Кубик.в.Кубе)].torrent без регистрации
Золото ЗОЛОТАЯ РАЗДАЧА! СКАЧАННОЕ НЕ ЗАСЧИТЫВАЕТСЯ! Золото
Дата: Зарегистрирован   [ Тип: внутренний ] Как тут cкачать?
MAGNET ссылка
MAGNET ссылка


Скачать .torrent

15 KB

Статус: проверено DHT
Скачан: торрент - 5145 раз, раздача полностью - 2 раз
Размер: 5,56 GB
Оценка:  - (Голосов: 0)
Поблагодарили: 1
Поделиться ссылкой на эту раздачу с друзьями:
В контактеFacebookОдноклассникиTwitterLivejournalМой МирLiveinternet
 

 

МихаНЕзатор

[] 

Раздача обновлена
 
Показать сообщения:    


Вы не можете начинать темы
Вы не можете отвечать на сообщения
Вы не можете редактировать свои сообщения
Вы не можете удалять свои сообщения
Вы не можете голосовать в опросах
Вы не можете прикреплять файлы к сообщениям
Вы можете скачивать файлы