Loading...
Error

Скачать Мальчики едят девочек / Boy Eats Girl (Стивен Брэдли) [2005, ужасы, комедия, BDRip-AVC] [MVO] торрент без регистрации

 
Статистика раздачи
Размер:  2,46 GB   |    Скачан:  102 раза

Полного источника не было: 23 минуты

 
Автор Сообщение

Marsianka

[] 

Информация о фильме
Название: Мальчики едят девочек
Оригинальное название: Boy Eats Girl
Год выпуска: 2005
Жанр: ужасы, комедия
Режиссер: Стивен Брэдли
В ролях: Саманта Мамба, Сара Бурк, Дэнис Конвэй, Тадж Мерфи, Пол Рейд, Марк Хаберман, Сара Джеймс, Лоуренс Кинлэн, Дэвид Леон

О фильме: Юноша признается девушке в любви и в ту же ночь умирает. Мать с помощью магии Вуду оживляет его, но юноша становится зомби и начинает есть своих сверстников, которые также становятся зомби.



Страна: Великобритания, Ирландия
Продолжительность: 01:20:13
Перевод: Профессиональный многоголосый

Файл
Кодек: x264
Качество: BDRip (AVC)
Видео: MPEG-4 AVC, 3500 Кбит/c, 1024x556, 23.976 кадр/c
Аудио #1: Русский (AC3, 6 ch, 448 Кбит/c)
Аудио #2: Английский (AC3, 6 ch, 448 Кбит/c)

Семпл
---[Information] [09.07.2013 20:01:29] x264 [info]: frame I:895 Avg QP:18.49 size: 66124
---[Information] [09.07.2013 20:01:29] x264 [info]: frame P:24265 Avg QP:20.69 size: 30753
---[Information] [09.07.2013 20:01:29] x264 [info]: frame B:90259 Avg QP:22.18 size: 14368
___________________________________________________________________________________________________
Общее
Уникальный идентификатор : 175126529232140209324624538963768869486 (0x83C024860D6F7218A4415DDC1305826E)
Полное имя : D:Mои раздачиMalchiki.edyat.devochek.2005.BDRip.(AVC)-MediaClub.mkv
Формат : Matroska
Версия формата : Version 2
Размер файла : 2,46 Гбайт
Продолжительность : 1 ч. 20 м.
Общий поток : 4391 Кбит/сек
Название фильма : MediaClub-kaspr
Дата кодирования : UTC 2013-07-10 04:28:30
Программа кодирования : mkvmerge v5.7.0 ('The Whirlwind') built on Aug 7 2012 14:11:40
Библиотека кодирования : libebml v1.2.3 + libmatroska v1.3.0

Видео
Идентификатор : 1
Формат : AVC
Формат/Информация : Advanced Video Codec
Профиль формата : High@L4.1
Параметр CABAC формата : Да
Параметр ReFrames формата : 9 кадров
Идентификатор кодека : V_MPEG4/ISO/AVC
Битрейт : 3500 Кбит/сек
Ширина : 1024 пикселя
Высота : 556 пикселей
Соотношение сторон : 1,85:1
Режим частоты кадров : Переменный
Частота кадров в оригинале : 23,976 кадра/сек
Цветовое пространство : YUV
Субдискретизация насыщенности : 4:2:0
Битовая глубина : 8 бит
Тип развёртки : Прогрессивная
Бит/(Пиксели*Кадры) : 0.256
Заголовок : MediaClub-kaspr
Библиотека кодирования : x264 core 133 r2334 a3ac64b
Настройки программы : cabac=1 / ref=9 / deblock=1:-3:-3 / analyse=0x3:0x133 / me=umh / subme=11 / psy=1 / psy_rd=1.00:0.10 / mixed_ref=1 / me_range=32 / chroma_me=1 / trellis=2 / 8x8dct=1 / cqm=0 / deadzone=21,11 / fast_pskip=0 / chroma_qp_offset=-3 / threads=12 / lookahead_threads=3 / sliced_threads=0 / nr=0 / decimate=0 / interlaced=0 / bluray_compat=0 / constrained_intra=0 / bframes=10 / b_pyramid=2 / b_adapt=2 / b_bias=0 / direct=3 / weightb=1 / open_gop=0 / weightp=2 / keyint=240 / keyint_min=22 / scenecut=40 / intra_refresh=0 / rc=2pass / mbtree=0 / bitrate=3500 / ratetol=1.0 / qcomp=0.60 / qpmin=0 / qpmax=69 / qpstep=4 / cplxblur=20.0 / qblur=0.5 / ip_ratio=1.40 / pb_ratio=1.30 / aq=1:1.00
Default : Да
Forced : Да

Аудио #1
Идентификатор : 2
Формат : AC-3
Формат/Информация : Audio Coding 3
Расширение режима : CM (complete main)
Параметр Endianness формата : Big
Идентификатор кодека : A_AC3
Продолжительность : 1 ч. 20 м.
Вид битрейта : Постоянный
Битрейт : 448 Кбит/сек
Каналы : 6 каналов
Расположение каналов : Front: L C R, Side: L R, LFE
Частота : 48,0 КГц
Битовая глубина : 16 бит
Метод сжатия : С потерями
Размер потока : 257 Мбайт (10%)
Заголовок : ПМ
Язык : Russian
Default : Да
Forced : Да

Аудио #2
Идентификатор : 3
Формат : AC-3
Формат/Информация : Audio Coding 3
Расширение режима : CM (complete main)
Параметр Endianness формата : Big
Идентификатор кодека : A_AC3
Продолжительность : 1 ч. 20 м.
Вид битрейта : Постоянный
Битрейт : 448 Кбит/сек
Каналы : 6 каналов
Расположение каналов : Front: L C R, Side: L R, LFE
Частота : 48,0 КГц
Битовая глубина : 16 бит
Метод сжатия : С потерями
Размер потока : 257 Мбайт (10%)
Заголовок : Оригинал
Язык : English
Default : Нет
Forced : Нет

Меню
00:00:00.000 : en:Chapter 01
00:11:28.688 : en:Chapter 02
00:18:55.551 : en:Chapter 03
00:29:26.723 : en:Chapter 04
00:40:56.203 : en:Chapter 05
00:48:34.786 : en:Chapter 06
00:57:34.159 : en:Chapter 07
01:05:10.489 : en:Chapter 08
01:13:03.670 : en:Chapter 09
Релиз:



Скачать Мальчики.едят.девочек.Boy.Eats.Girl.(Стивен.Брэдли).[2005.ужасы.комедия.BDRip-AVC].[MVO].torrent без регистрации
Золото ЗОЛОТАЯ РАЗДАЧА! СКАЧАННОЕ НЕ ЗАСЧИТЫВАЕТСЯ! Золото
Дата: Зарегистрирован   [ Тип: внутренний ] Как тут cкачать?
MAGNET ссылка
MAGNET ссылка


Скачать .torrent

13 KB

Статус: проверено DHT
Скачан: торрент - 102 раз, раздача полностью - 5 раз
Размер: 2,46 GB
Оценка:  - (Голосов: 0)
Поблагодарили: 2
Поделиться ссылкой на эту раздачу с друзьями:
В контактеFacebookОдноклассникиTwitterLivejournalМой МирLiveinternet
 

 
Показать сообщения:    


Вы не можете начинать темы
Вы не можете отвечать на сообщения
Вы не можете редактировать свои сообщения
Вы не можете удалять свои сообщения
Вы не можете голосовать в опросах
Вы не можете прикреплять файлы к сообщениям
Вы можете скачивать файлы