Loading...
Error

Скачать Дикая штучка / Something Wild (Джонатан Демме) [1986, драма, мелодрама, комедия, криминал, BDRip-AVC] [Dub]+[DVO]+[AVO]+[Оригинал]+[Sub] торрент без регистрации

 
Статистика раздачи
Размер:  3,02 GB   |    Скачан:  112 раз
Сидов:  1  [  0 KB/s  ]  
 
Автор Сообщение

Marsianka

[] 

Информация о фильме
Название: Дикая штучка
Оригинальное название: Something Wild
Год выпуска: 1986
Жанр: драма, мелодрама, комедия, криминал
Режиссер: Джонатан Демме
В ролях: Джефф Дэниелс, Мелани Гриффит, Рэй Лиотта, Маргарет Колин, Кристин Олсен, Сью Тиссью, Дэйна Прю, Трэйси Уолтер, Джек Гилпин, Анна Томсон, Джон Сэйлз

О фильме: Молодой менеджер Чарльз Дриггз, для которого ничего не существует, кроме работы и мечты о внезапной карьере, однажды знакомится с «роковой красавицей», конечно же, жгучей брюнеткой сексапильного вида с соответствующим именем Лулу. После первой бурной ночи в мотеле она превращается в блондинку Одри, которая тем не менее втягивает Чарльза в авантюру, заставляя отправиться в путешествие из Нью-Йорка в штат Вирджиния, на встречу выпускников в своем родном городке. Там она выдает Чарльза всем, в том числе матери, за нового мужа, не зная, что Рей, прежний законный супруг, отсидел срок в тюрьме и вышел на свободу.



Страна: США
Студия: Religioso Primitiva
Продолжительность: 01:53:46
Перевод: Дублированный, профессиональный двухголосый, авторский одноголосый (Визгунов)

Файл
Кодек: MPEG-4 AVC
Качество: BDRip-AVC
Видео: 2900 Кбит/с, 1024x576, 23.976 кадр/с
Аудио #1: Русский (MP3, 2 ch, 192 Кбит/с) / Дублированный
Аудио #2: Русский (AC3, 2 ch, 192 Кбит/с) / Профессиональный двухголосый
Аудио #3: Русский (AC3, 2 ch, 256 Кбит/с) / Авторский одноголосый (Визгунов)
Аудио #4: Английский (AC3, 2 ch, 256 Кбит/с)
Субтитры: Английские
Семпл
Общее
Уникальный идентификатор : 233043872401795585319118161016675811875 (0xAF529E0239B6E49F9DED495B457EC223)
Полное имя : E:TorrentsDikaja.shtuchka.1986.x264.BDRip.(AVC)-MediaClub.mkv
Формат : Matroska
Версия формата : Version 2
Размер файла : 3,02 Гбайт
Продолжительность : 1 ч. 53 м.
Общий поток : 3799 Кбит/сек
Дата кодирования : UTC 2013-07-10 15:11:29
Программа кодирования : mkvmerge v4.0.0 ('The Stars were mine') сборка от Jun 6 2010 16:18:42
Библиотека кодирования : libebml v1.0.0 + libmatroska v1.0.0

Видео
Идентификатор : 1
Формат : AVC
Формат/Информация : Advanced Video Codec
Профиль формата : High@L4.1
Параметр CABAC формата : Да
Параметр ReFrames формата : 9 кадров
Идентификатор кодека : V_MPEG4/ISO/AVC
Продолжительность : 1 ч. 53 м.
Битрейт : 2900 Кбит/сек
Ширина : 1024 пикселя
Высота : 576 пикселей
Соотношение сторон : 16:9
Режим частоты кадров : Постоянный
Частота кадров : 23,976 кадра/сек
Цветовое пространство : YUV
Субдискретизация насыщенности : 4:2:0
Битовая глубина : 8 бит
Тип развёртки : Прогрессивная
Бит/(Пиксели*Кадры) : 0.205
Размер потока : 2,25 Гбайт (74%)
Библиотека кодирования : x264 core 130 r2273 b3065e6
Настройки программы : cabac=1 / ref=9 / deblock=1:-2:-2 / analyse=0x3:0x133 / me=umh / subme=11 / psy=1 / psy_rd=1.00:0.10 / mixed_ref=1 / me_range=32 / chroma_me=1 / trellis=2 / 8x8dct=1 / cqm=0 / deadzone=21,11 / fast_pskip=0 / chroma_qp_offset=-3 / threads=6 / lookahead_threads=1 / sliced_threads=0 / nr=0 / decimate=0 / interlaced=0 / bluray_compat=0 / constrained_intra=0 / bframes=7 / b_pyramid=2 / b_adapt=2 / b_bias=0 / direct=3 / weightb=1 / open_gop=0 / weightp=2 / keyint=250 / keyint_min=23 / scenecut=40 / intra_refresh=0 / rc=2pass / mbtree=0 / bitrate=2900 / ratetol=1.0 / qcomp=0.60 / qpmin=0 / qpmax=69 / qpstep=4 / cplxblur=20.0 / qblur=0.5 / ip_ratio=1.40 / pb_ratio=1.30 / aq=1:0.80
Язык : English
Default : Нет
Forced : Нет

Аудио #1
Идентификатор : 2
Формат : MPEG Audio
Версия формата : Version 1
Профиль формата : Layer 3
Режим : Joint stereo
Расширение режима : MS Stereo
Идентификатор кодека : A_MPEG/L3
Идентификатор кодека/Подсказка : MP3
Продолжительность : 1 ч. 53 м.
Вид битрейта : Постоянный
Битрейт : 192 Кбит/сек
Каналы : 2 канала
Частота : 48,0 КГц
Метод сжатия : С потерями
Размер потока : 156 Мбайт (5%)
Заголовок : dub
Библиотека кодирования : LAME3.98r
Настройки программы : -m j -V 4 -q 5 -lowpass 18.6 -b 192
Язык : Russian
Default : Нет
Forced : Да

Аудио #2
Идентификатор : 3
Формат : AC-3
Формат/Информация : Audio Coding 3
Расширение режима : CM (complete main)
Параметр Endianness формата : Big
Идентификатор кодека : A_AC3
Продолжительность : 1 ч. 53 м.
Вид битрейта : Постоянный
Битрейт : 192 Кбит/сек
Каналы : 2 канала
Расположение каналов : Front: L R
Частота : 48,0 КГц
Битовая глубина : 16 бит
Метод сжатия : С потерями
Размер потока : 156 Мбайт (5%)
Заголовок : DVO
Язык : Russian
Default : Нет
Forced : Нет

Аудио #3
Идентификатор : 4
Формат : AC-3
Формат/Информация : Audio Coding 3
Расширение режима : CM (complete main)
Параметр Endianness формата : Big
Идентификатор кодека : A_AC3
Продолжительность : 1 ч. 53 м.
Вид битрейта : Постоянный
Битрейт : 256 Кбит/сек
Каналы : 2 канала
Расположение каналов : Front: L R
Частота : 48,0 КГц
Битовая глубина : 16 бит
Метод сжатия : С потерями
Размер потока : 208 Мбайт (7%)
Заголовок : AVO
Язык : Russian
Default : Нет
Forced : Нет

Аудио #4
Идентификатор : 5
Формат : AC-3
Формат/Информация : Audio Coding 3
Расширение режима : CM (complete main)
Параметр Endianness формата : Big
Идентификатор кодека : A_AC3
Продолжительность : 1 ч. 53 м.
Вид битрейта : Постоянный
Битрейт : 256 Кбит/сек
Каналы : 2 канала
Расположение каналов : Front: L R
Частота : 48,0 КГц
Битовая глубина : 16 бит
Метод сжатия : С потерями
Размер потока : 208 Мбайт (7%)
Язык : English
Default : Нет
Forced : Нет

Текст
Идентификатор : 6
Формат : UTF-8
Идентификатор кодека : S_TEXT/UTF8
Идентификатор кодека/Информация : UTF-8 Plain Text
Заголовок : SRT
Язык : English
Default : Нет
Forced : Нет
Релиз от: |



Скачать Дикая.штучка.Something.Wild.(Джонатан.Демме).[1986.драма.мелодрама.комедия.криминал.BDRip-AVC].[Dub]+[DVO]+[AVO]+[Оригинал]+[Sub].torrent без регистрации
Золото ЗОЛОТАЯ РАЗДАЧА! СКАЧАННОЕ НЕ ЗАСЧИТЫВАЕТСЯ! Золото
Дата: Зарегистрирован   [ Тип: внутренний ] Как тут cкачать?
MAGNET ссылка
MAGNET ссылка


Скачать .torrent

16 KB

Статус: проверено DHT
Скачан: торрент - 112 раз, раздача полностью - 23 раз
Размер: 3,02 GB
Оценка:  - (Голосов: 0)
Поблагодарили: 1
Поделиться ссылкой на эту раздачу с друзьями:
В контактеFacebookОдноклассникиTwitterLivejournalМой МирLiveinternet
 

 
Показать сообщения:    


Вы не можете начинать темы
Вы не можете отвечать на сообщения
Вы не можете редактировать свои сообщения
Вы не можете удалять свои сообщения
Вы не можете голосовать в опросах
Вы не можете прикреплять файлы к сообщениям
Вы можете скачивать файлы