Loading...
Error

Скачать Пересекая черту / Пересекающиеся линии / Crossing Lines (сезон 01) (Дэниэл Персивал, Эрик Валетт, Энди Уилсон) [2013, фантастика, боевик, драма, криминал, WEB-DLRip] [720p] [MVO (ViruseProject)] торрент без регистрации

 
Статистика раздачи
Размер:  14,38 GB   |    Скачан:  165 раз
Сидов:  1  [  0 KB/s  ]  
 
Автор Сообщение

МихаНЕзатор

[] 

Пересекающиеся линии
Crossing Lines


Название: Пересекающиеся линии
Оригинальное название: Crossing Lines
Год выпуска: 2013
Жанр: боевик, драма, криминал
Выпущено: Франция, Германия, США
Продолжительность: ~ 00:42:00
Перевод: Любительский (многоголосый закадровый) [ViruseProject]
Режиссер: Дэниэл Персивал, Эрик Валетт, Энди Уилсон

Описание: Уильям Фихтнер, Дональд Сазерленд, Марк Лавуан, Ричард Флуд, Габриэлла Пессион, Том Влашиха, Мун Дайлли, Эльза Молльен, Клаудия Васекова, Марко Бонини
О фильме: С формированием Европейского Союза для упрощения торговли и путешествий были открыты границы. Однако это имело и другое последствие: взрыв международной преступности. При таких условиях преступники могут сбегать в любую страну и спрятаться в любом городе. В мире, где самые опасные персоны могут пересекать столько границ, элитное спецподразделение, каждый член которого избирался исходя из его особенных навыков, должно провести под этим черту.



Над релизом трудились:
Озвучка: *Марина Видякина *Алла Блаер *Дмитрий Иванов *Алекс Викке *Игорь Головин *Дмитрий Кравченко
Перевод: нотабиноид
Редакция: viruse (Виталий Емельянов)

Качество: WEB-DL 720p
Формат: MKV
Видео кодек: H.264
Аудио кодек: AC-3
Видео: AVC, 1280x718 (16:9), 23.976 fps, 3 982 Kbps (0.181 bit/pixel)
Аудио 1: AC-3, 48.0 KHz, 6 ch, 384 Kbps (Rus)
Аудио 2: AC-3, 48.0 KHz, 6 ch, 384 Kbps (Eng)[/size]

17.10.2013 г. торент обновлён, добавлена 10-я серия!

Complete name : Crossing.Lines.S01E01.720p.WEB-DL.DD5.1.Rus.Eng-ViruseProject.mkv
Format : Matroska
Format version : Version 4 / Version 2
File size : 1.44 GiB
Duration : 42mn 29s
Overall bit rate : 4 847 Kbps
Encoded date : UTC 2013-07-08 15:11:10
Writing application : mkvmerge v6.0.0 ('Coming Up For Air') built on Jan 20 2013 09:52:00
Writing library : libebml v1.3.0 + libmatroska v1.4.0

Video
ID : 1
Format : AVC
Format/Info : Advanced Video Codec
Format profile : High@L3.1
Format settings, CABAC : No
Format settings, ReFrames : 2 frames
Codec ID : V_MPEG4/ISO/AVC
Duration : 42mn 29s
Bit rate : 3 982 Kbps
Width : 1 280 pixels
Height : 718 pixels
Display aspect ratio : 16:9
Frame rate mode : Constant
Frame rate : 23.976 fps
Color space : YUV
Chroma subsampling : 4:2:0
Bit depth : 8 bits
Scan type : Progressive
Bits/(Pixel*Frame) : 0.181
Stream size : 1.18 GiB (82%)
Language : English
Default : Yes
Forced : No
Color primaries : BT.709
Transfer characteristics : BT.709
Matrix coefficients : BT.709

Audio #1
ID : 2
Format : AC-3
Format/Info : Audio Coding 3
Mode extension : CM (complete main)
Format settings, Endianness : Big
Codec ID : A_AC3
Duration : 42mn 29s
Bit rate mode : Constant
Bit rate : 384 Kbps
Channel(s) : 6 channels
Channel positions : Front: L C R, Side: L R, LFE
Sampling rate : 48.0 KHz
Bit depth : 16 bits
Compression mode : Lossy
Stream size : 117 MiB (8%)
Language : Russian
Default : Yes
Forced : No

Audio #2
ID : 3
Format : AC-3
Format/Info : Audio Coding 3
Mode extension : CM (complete main)
Format settings, Endianness : Big
Codec ID : A_AC3
Duration : 42mn 29s
Bit rate mode : Constant
Bit rate : 384 Kbps
Channel(s) : 6 channels
Channel positions : Front: L C R, Side: L R, LFE
Sampling rate : 48.0 KHz
Bit depth : 16 bits
Compression mode : Lossy
Stream size : 117 MiB (8%)
Language : English
Default : No
Forced : No

Внимание! Раздача ведётся путём добавления новых серий; при каждом добавлении создаётся новый торрент. Чтобы начать докачку новой серии, пользователям необходимо сделать следующее: (1) остановить скачивание, (2) удалить старый торрент у себя из клиента (старые серии удалять не надо), (3) скачать новый торрент и запустить его у себя в клиенте вместо старого, при этом указать клиенту путь в старую папку куда и должно происходить скачивание новых серий.
Ваш клиент при этом должен произвести хеширование (проверку) старой папки (если не производит сам - помогите ему сделать это), и будет докачивать только те серии которых у вас ещё нет. Старые серии при этом не удаляются, а продолжают раздаваться!
Если вы уже удалили старые серии, то предотвратить повторную закачку старых серий можно, отжав галочку в соответствующих местах при запуске нового торрента.



Скачать Пересекая.черту.Пересекающиеся.линии.Crossing.Lines.(сезон.01).(Дэниэл.Персивал.Эрик.Валетт.Энди.Уилсон).[2013.фантастика.боевик.драма.криминал.WEB-DLRip].[720p].[MVO.(ViruseProject)].torrent без регистрации
Золото ЗОЛОТАЯ РАЗДАЧА! СКАЧАННОЕ НЕ ЗАСЧИТЫВАЕТСЯ! Золото
Дата: Зарегистрирован   [ Тип: внутренний ] Как тут cкачать?
MAGNET ссылка
MAGNET ссылка


Скачать .torrent

73 KB

Статус: проверено DHT
Скачан: торрент - 165 раз, раздача полностью - 6 раз
Размер: 14,38 GB
Оценка:  - (Голосов: 0)
Поблагодарили: 5
Поделиться ссылкой на эту раздачу с друзьями:
В контактеFacebookОдноклассникиTwitterLivejournalМой МирLiveinternet
 

 

МихаНЕзатор

[] 

Раздача обновлена
 
Показать сообщения:    


Вы не можете начинать темы
Вы не можете отвечать на сообщения
Вы не можете редактировать свои сообщения
Вы не можете удалять свои сообщения
Вы не можете голосовать в опросах
Вы не можете прикреплять файлы к сообщениям
Вы можете скачивать файлы