Loading...
Error

Скачать Пик Данте / Dante's Peak (Роджер Дональдсон) [1997, боевик, фильм-катастрофа, триллер, приключения, HDDVDRip-AVC] [MVO]+[AVO]+[Sub] торрент без регистрации

 
Статистика раздачи
Размер:  2,85 GB   |    Скачан:  135 раз

Полного источника не было: 25 минут

 
Автор Сообщение

Marsianka

[] 

Информация о фильме
Название: Пик Данте
Оригинальное название: Dante's Peak
Год выхода: 1997
Жанр: боевик, фильм-катастрофа, триллер, приключения
Режиссер: Роджер Дональдсон
В ролях: Пирс Броснан, Линда Хэмилтон, Чарлз Халлахан, Грант Хеслов, Элизабет Хоффман, Джейми Рене Смит, Джереми Фоули, Арабелла Филд, Тзи Ма, Брайан Редди, Керк Тратнер, Кэрол Эндроски, Билл Болендер, Питер Джейсон, Тим Холдеман, Уокер Брандт, Ли Гарлингтон

О фильме:
Ученый-вулканолог Гарри Далтон, потерявший жену во время извержения вулкана, отправляется на Пик Данте, в маленький городок, расположенный на северо-западном побережье, для того, чтобы заняться там рутинной работой исследованием сейсмической ситуации. Ученый немедленно обнаруживает тревожные признаки надвигающейся катастрофы, грозящей обернуться концом света. Правительство не обращает внимания на его грозные предупреждения, и лишь мэр городка Пик Данте Рэчел Уэндо, с которой у него завязался роман, осознает весь ужас положения и спешит к нему на помощь...



Страна: США, Pacific Western, Universal Pictures
Продолжительность: 01:48:28
Перевод: Профессиональный многоголосый, авторский
Субтитры: Английские
Дата релиза: 13.07.2013

Файл
Кодек: H.264
Качество: HDDVDRip (AVC) (HDDVD Remux (1080p))
Видео: MPEG-4 AVC, 2609 Кбит/с, 1024x434
Аудио 1: Русский (AC3, 6 ch, 384 Кбит/с) - многоголосый
Аудио 2: Русский (AC3, 6 ch, 384 Кбит/с) - авторский (Живов)
Аудио 3: Английский (AC3, 6 ch, 384 Кбит/с)
Общее
Уникальный идентификатор : 244102958144745230190611315240081314304 (0xB7A4850877906F7AA54042B89BCC5200)
Полное имя : E:Pik.Dante.1997.x264.HDDVDRip.(AVC).ExKinoRay.mkv
Формат : Matroska
Размер файла : 2,85 Гбайт
Продолжительность : 1 ч. 48 м.
Общий поток : 3759 Кбит/сек
Название фильма : Pik.Dante.1997.x264.HDDVDRip.(AVC).ExKinoRay
Дата кодирования : UTC 2013-07-13 17:14:38
Программа кодирования : mkvmerge v4.0.0 ('The Stars were mine') сборка от Jun 6 2010 16:18:42
Библиотека кодирования : libebml v1.0.0 + libmatroska v1.0.0

Видео
Идентификатор : 1
Формат : AVC
Формат/Информация : Advanced Video Codec
Профиль формата : High@L4.1
Параметр CABAC формата : Да
Параметр ReFrames формата : 8 кадров
Идентификатор кодека : V_MPEG4/ISO/AVC
Продолжительность : 1 ч. 48 м.
Битрейт : 2609 Кбит/сек
Ширина : 1024 пикс.
Высота : 434 пикс.
Соотношение сторон : 2,35:1
Частота кадров : 23,976 кадр/сек
Цветовое пространство : YUV
Подвыборка цветности : 4:2:0
Битовая глубина : 8 бит
Тип развёртки : Прогрессивная
Бит/(Пиксели*Кадры) : 0.245
Размер потока : 1,92 Гбайт (67%)
Заголовок : Rip by Enigma-Vladislav71
Библиотека кодирования : x264 core 129 r2245 bc13772
Настройки программы : cabac=1 / ref=8 / deblock=1:-2:-2 / analyse=0x3:0x133 / me=umh / subme=11 / psy=1 / psy_rd=1.00:0.00 / mixed_ref=1 / me_range=48 / chroma_me=1 / trellis=2 / 8x8dct=1 / cqm=0 / deadzone=21,11 / fast_pskip=0 / chroma_qp_offset=-2 / threads=3 / lookahead_threads=1 / sliced_threads=0 / nr=0 / decimate=0 / interlaced=0 / bluray_compat=0 / constrained_intra=0 / bframes=8 / b_pyramid=2 / b_adapt=2 / b_bias=0 / direct=3 / weightb=1 / open_gop=0 / weightp=2 / keyint=240 / keyint_min=23 / scenecut=40 / intra_refresh=0 / rc_lookahead=40 / rc=2pass / mbtree=1 / bitrate=2609 / ratetol=1.0 / qcomp=0.60 / qpmin=10 / qpmax=51 / qpstep=4 / cplxblur=20.0 / qblur=0.5 / ip_ratio=1.40 / aq=2:1.00
Язык : English

Аудио #1
Идентификатор : 2
Формат : AC-3
Формат/Информация : Audio Coding 3
Расширение режима : CM (complete main)
Идентификатор кодека : A_AC3
Продолжительность : 1 ч. 48 м.
Вид битрейта : Постоянный
Битрейт : 384 Кбит/сек
Каналы : 6 каналов
Расположение каналов : Front: L C R, Side: L R, LFE
Частота : 48,0 КГц
Битовая глубина : 16 бит
Метод сжатия : С потерями
Размер потока : 298 Мбайт (10%)
Заголовок : многоголосый
Язык : Russian

Аудио #2
Идентификатор : 3
Формат : AC-3
Формат/Информация : Audio Coding 3
Расширение режима : CM (complete main)
Идентификатор кодека : A_AC3
Продолжительность : 1 ч. 48 м.
Вид битрейта : Постоянный
Битрейт : 384 Кбит/сек
Каналы : 6 каналов
Расположение каналов : Front: L C R, Side: L R, LFE
Частота : 48,0 КГц
Битовая глубина : 16 бит
Метод сжатия : С потерями
Размер потока : 298 Мбайт (10%)
Заголовок : Живов
Язык : Russian

Аудио #3
Идентификатор : 4
Формат : AC-3
Формат/Информация : Audio Coding 3
Расширение режима : CM (complete main)
Идентификатор кодека : A_AC3
Продолжительность : 1 ч. 48 м.
Вид битрейта : Постоянный
Битрейт : 384 Кбит/сек
Каналы : 6 каналов
Расположение каналов : Front: L C R, Side: L R, LFE
Частота : 48,0 КГц
Битовая глубина : 16 бит
Метод сжатия : С потерями
Размер потока : 298 Мбайт (10%)
Заголовок : английский
Язык : English

Текст
Идентификатор : 5
Формат : UTF-8
Идентификатор кодека : S_TEXT/UTF8
Идентификатор кодека/Информация : UTF-8 Plain Text
Язык : English

Меню
00:00:00.000 : en:Chapter 01
00:03:29.709 : en:Chapter 02
00:05:12.312 : en:Chapter 03
00:06:47.949 : en:Chapter 04
00:10:38.679 : en:Chapter 05
00:12:00.594 : en:Chapter 06
00:14:31.954 : en:Chapter 07
00:18:47.668 : en:Chapter 08
00:20:35.192 : en:Chapter 09
00:25:56.763 : en:Chapter 10
00:27:31.608 : en:Chapter 11
00:29:12.542 : en:Chapter 12
00:30:54.477 : en:Chapter 13
00:34:41.829 : en:Chapter 14
00:36:37.236 : en:Chapter 15
00:38:40.526 : en:Chapter 16
00:44:36.090 : en:Chapter 17
00:46:57.231 : en:Chapter 18
00:50:48.045 : en:Chapter 19
00:52:10.961 : en:Chapter 20
00:54:06.993 : en:Chapter 21
00:55:20.317 : en:Chapter 22
01:01:26.224 : en:Chapter 23
01:04:33.452 : en:Chapter 24
01:06:03.250 : en:Chapter 25
01:08:52.545 : en:Chapter 26
01:11:32.705 : en:Chapter 27
01:14:56.325 : en:Chapter 28
01:17:03.577 : en:Chapter 29
01:18:47.431 : en:Chapter 30
01:20:56.977 : en:Chapter 31
01:23:03.395 : en:Chapter 32
01:27:34.290 : en:Chapter 33
01:29:38.122 : en:Chapter 34
01:32:31.128 : en:Chapter 35
01:35:49.493 : en:Chapter 36
01:38:12.386 : en:Chapter 37
01:40:46.040 : en:Chapter 38
01:48:27.876 : en:Chapter 39
Семпл Релиз от:

Авторы релиза:



Скачать Пик.Данте.Dante's.Peak.(Роджер.Дональдсон).[1997.боевик.фильм-катастрофа.триллер.приключения.HDDVDRip-AVC].[MVO]+[AVO]+[Sub].torrent без регистрации
Золото ЗОЛОТАЯ РАЗДАЧА! СКАЧАННОЕ НЕ ЗАСЧИТЫВАЕТСЯ! Золото
Дата: Зарегистрирован   [ Тип: внутренний ] Как тут cкачать?
MAGNET ссылка
MAGNET ссылка


Скачать .torrent

15 KB

Статус: проверено DHT
Скачан: торрент - 135 раз, раздача полностью - 89 раз
Размер: 2,85 GB
Оценка:  4 (Голосов: 1)
Поблагодарили: 3
Поделиться ссылкой на эту раздачу с друзьями:
В контактеFacebookОдноклассникиTwitterLivejournalМой МирLiveinternet
 

 

Dashusik

[] 

о боже, пораздавайте, кто-нибудь, я ж помру, пока это качать буду!!!
 
Показать сообщения:    


Вы не можете начинать темы
Вы не можете отвечать на сообщения
Вы не можете редактировать свои сообщения
Вы не можете удалять свои сообщения
Вы не можете голосовать в опросах
Вы не можете прикреплять файлы к сообщениям
Вы можете скачивать файлы