Loading...
Error

Скачать Силач Санта-Клаус / Santa with Muscles (Джон Марловски / John Murlowski) [1996, комедия, семейный, HDTVRip-AVC] [AVO] (Ю. Сербин) торрент без регистрации

 
Статистика раздачи
Размер:  1,46 GB   |    Скачан:  149 раз
Сидов:  1  [  0 KB/s  ]  
 
Автор Сообщение

leon030982

[] 

Силач Санта-Клаус / Santa with Muscles



Год выпуска: 1996
Страна: США
Жанр: комедия, семейный
Продолжительность: 01:37:24
Перевод: Авторский (одноголосый закадровый) [Ю. Сербин]
Cубтитры: нет
Оригинальная аудиодорожка: нет

Режиссер: Джон Марловски / John Murlowski

В ролях: Терри Халк Хоган, Эд Бегли-мл., Клинт Ховард, Дон Старк, Кевин Уэст, Гарретт Моррис, Адам Уайли, Робин Куртис, Уильям Ньюмэн, Дайэн Робин

Описание: В канун Рождества эксцентричный миллионер Торн, мускулистый гигант, облачившись в хаки, бегает со своими друзьями по городу, пугая полицейских оружием, стреляющим краской. Полицейские, сытые по горло ребячеством миллионера-хулигана, загоняют Торна в супермаркет.
Чтобы скрыться от погони, Торн облачается в костюм Санта Клауса. Миллионер так входит в роль, что вскоре ему начинает казаться, что он и есть настоящий Санта, а значит — должен творить рождественские чудеса!
Вскоре силачу Санте представляется возможность проявить себя. Злодей Фрост собирается закрыть местный приют. Богатырь Санта собирается пустить в ход свою силу, чтобы спасти Рождество для сирот.



Сэмпл: http://yadi.sk/d/etnUKRPt6QBon
Качество видео: HDTVRip-AVC
Формат видео: MKV
Исходник: HDTV1080
Видео: 720х400 (1:80:1), 1 947 kbps, 23.976 fps, 0.28 bit/pixel
Аудио: 48 kHz, AC3 Dolby Digital, 1 ch (C) ~192.00 kbps avg
General
Unique ID : 218287072753987982680662693242878393873 (0xA4388F9CF8DB18E5A45EF74107317E11)
Complete name : E:\Santa.With.Muscles.1996.mkv
Format : Matroska
Format version : Version 4 / Version 2
File size : 1.46 GiB
Duration : 1h 37mn
Overall bit rate : 2 140 Kbps
Encoded date : UTC 2013-07-03 16:55:04
Writing application : mkvmerge v6.3.0 ('You can't stop me!') built on Jun 28 2013 20:09:41
Writing library : libebml v1.3.0 + libmatroska v1.4.0
Video
ID : 1
Format : AVC
Format/Info : Advanced Video Codec
Format profile : High@L4.1
Format settings, CABAC : Yes
Format settings, ReFrames : 12 frames
Codec ID : V_MPEG4/ISO/AVC
Duration : 1h 37mn
Bit rate : 1 947 Kbps
Width : 720 pixels
Height : 400 pixels
Display aspect ratio : 16:9
Frame rate mode : Constant
Frame rate : 23.976 fps
Color space : YUV
Chroma subsampling : 4:2:0
Bit depth : 8 bits
Scan type : Progressive
Bits/(Pixel*Frame) : 0.282
Stream size : 1.30 GiB (89%)
Writing library : x264 core 130 r2273 b3065e6
Encoding settings : cabac=1 / ref=12 / deblock=1:-1:-1 / analyse=0x3:0x133 / me=umh / subme=9 / psy=1 / psy_rd=1.00:0.15 / mixed_ref=1 / me_range=32 / chroma_me=1 / trellis=2 / 8x8dct=1 / cqm=0 / deadzone=21,11 / fast_pskip=0 / chroma_qp_offset=-3 / threads=3 / lookahead_threads=1 / sliced_threads=0 / nr=0 / decimate=1 / interlaced=0 / bluray_compat=0 / constrained_intra=0 / bframes=3 / b_pyramid=2 / b_adapt=2 / b_bias=0 / direct=3 / weightb=1 / open_gop=0 / weightp=2 / keyint=250 / keyint_min=23 / scenecut=40 / intra_refresh=0 / rc_lookahead=50 / rc=2pass / mbtree=1 / bitrate=1947 / ratetol=1.0 / qcomp=0.60 / qpmin=0 / qpmax=69 / qpstep=4 / cplxblur=20.0 / qblur=0.5 / ip_ratio=1.40 / aq=1:1.00
Language : English
Default : Yes
Forced : No
Audio
ID : 2
Format : AC-3
Format/Info : Audio Coding 3
Mode extension : CM (complete main)
Format settings, Endianness : Big
Codec ID : A_AC3
Duration : 1h 37mn
Bit rate mode : Constant
Bit rate : 192 Kbps
Channel(s) : 1 channel
Channel positions : Front: C
Sampling rate : 48.0 KHz
Bit depth : 16 bits
Compression mode : Lossy
Stream size : 134 MiB (9%)
Title : AVO Serbin
Language : Russian
Default : Yes
Forced : No



Скачать Силач.Санта-Клаус.Santa.with.Muscles.(Джон.Марловски.John.Murlowski).[1996.комедия.семейный.HDTVRip-AVC].[AVO].(Ю.Сербин).torrent без регистрации
Золото ЗОЛОТАЯ РАЗДАЧА! СКАЧАННОЕ НЕ ЗАСЧИТЫВАЕТСЯ! Золото
Дата: Зарегистрирован   [ Тип: внутренний ] Как тут cкачать?
MAGNET ссылка
MAGNET ссылка


Скачать .torrent

15 KB

Статус: проверено DHT
Скачан: торрент - 149 раз, раздача полностью - 2 раз
Размер: 1,46 GB
Оценка:  5 (Голосов: 1)
Поблагодарили: 2
Поделиться ссылкой на эту раздачу с друзьями:
В контактеFacebookОдноклассникиTwitterLivejournalМой МирLiveinternet
 

 
Показать сообщения:    


Вы не можете начинать темы
Вы не можете отвечать на сообщения
Вы не можете редактировать свои сообщения
Вы не можете удалять свои сообщения
Вы не можете голосовать в опросах
Вы не можете прикреплять файлы к сообщениям
Вы можете скачивать файлы