Loading...
Error

Скачать Ярость / The Fury (Брайан Де Пальма / Brian De Palma) [1978, ужасы, фантастика, триллер, драма, BDRip] [MVO] торрент без регистрации

 
Статистика раздачи
Размер:  1,46 GB   |    Скачан:  129 раз

Полного источника не было: 20 минут

 
Автор Сообщение

leon030982

[] 

Ярость / The Fury



Год выпуска: 1978
Страна: США
Студия: Frank Yablans Presentations, Twentieth Century Fox Film Corporation See more
Жанр: ужасы, фантастика, триллер, драма
Продолжительность: 01:57:56
Перевод: Профессиональный (многоголосый закадровый)
Cубтитры: нет

Режиссер: Брайан Де Пальма / Brian De Palma
В ролях: Кирк Дуглас, Джон Кассаветис, Кэрри Снодгресс, Чарльз Дёрнинг, Эми Ирвинг, Фиона Льюис, Эндрю Стивенс, Кэрол Ив Россен, Рутаня Олда, Джойс Истон

Описание: Секретное американское агентство проводит эксперименты с детьми, обладающими повышенными телепатическими способностями, чтобы впоследствии использовать их в военных целях… Бывший агент ЦРУ Питер Сандза (Кирк Дуглас), спокойно отдыхающий со своим сыном Робином на Ближнем Востоке, переживает шок, когда мальчика неожиданно похищают. Чтобы выйти на его след, Питер обращается за помощью к девушке-экстрасенсу Джиллиан Беллевер. То, что им удается узнать, поначалу никак не укладывается у Питера в голове…
СЭМПЛ
Качество видео:BDRip (Исходник для рипа BDRemux 1080p / HDTracker / спасибо - delo2006)
Формат видео: AVI
Видео: XviD, 720x384 (1.88:1), 1313 kbps/s, 23.976 fps
Аудио : AC3, 48 kHz, 448 kbps, 3/2 (L,C,R,l,r) + LFE ch

Код:

Общее
Полное имя                       : Yarost.1978.XviD.BDRip.RusMVO.Inch.avi
Формат                           : AVI
Формат/Информация                : Audio Video Interleave
Размер файла                     : 1,46 Гбайт
Продолжительность                : 1 ч. 57 м.
Общий поток                      : 1770 Кбит/сек
Название фильма                  : Yarost.1978.XviD.BDRip.RusMVO.Inch
Режиссёр                         : Inch
Жанр                             : Drama/Horror/Sci-Fi/Thriller
Программа кодирования            : VirtualDubMod 1.5.10.3 | www.virtualdub-fr.org || (build 2550/release)
Формат оригинала/Имя             : The Fury / 1978 / Brian De Palma
Правообладатель                  : rutracker.org
Примечание                       : RusMVO
Видео
Идентификатор                    : 0
Формат                           : MPEG-4 Visual
Профиль формата                  : Advanced Simple@L5
Параметр BVOP формата            : 2
Параметр QPel формата            : Нет
Параметр GMC формата             : Без точки перехода
Параметр матрицы формата         : Выборочная
Идентификатор кодека             : XVID
Идентификатор кодека/Подсказка   : XviD
Продолжительность                : 1 ч. 57 м.
Битрейт                          : 1313 Кбит/сек
Ширина                           : 720 пикселей
Высота                           : 384 пикселя
Соотношение сторон               : 1,875
Частота кадров                   : 23,976 кадра/сек
Цветовое пространство            : YUV
Субдискретизация насыщенности    : 4:2:0
Битовая глубина                  : 8 бит
Тип развёртки                    : Прогрессивная
Метод сжатия                     : С потерями
Бит/(Пиксели*Кадры)              : 0.198
Размер потока                    : 1,08 Гбайт (74%)
Библиотека кодирования           : XviD 73
Аудио
Идентификатор                    : 1
Формат                           : AC-3
Формат/Информация                : Audio Coding 3
Расширение режима                : CM (complete main)
Идентификатор кодека             : 2000
Продолжительность                : 1 ч. 57 м.
Вид битрейта                     : Постоянный
Битрейт                          : 448 Кбит/сек
Каналы                           : 6 каналов
Расположение каналов             : Front: L C R, Side: L R, LFE
Частота                          : 48,0 КГц
Битовая глубина                  : 16 бит
Метод сжатия                     : С потерями
Размер потока                    : 378 Мбайт (25%)
Выравнивание                     : Разделение по промежуткам
Продолжительность промежутка     : 42  мс. (1,00 видеокадр)
Время предзагрузки промежутка    : 500  мс.



Скачать Ярость.The.Fury.(Брайан.Де.Пальма.Brian.De.Palma).[1978.ужасы.фантастика.триллер.драма.BDRip].[MVO].torrent без регистрации
Золото ЗОЛОТАЯ РАЗДАЧА! СКАЧАННОЕ НЕ ЗАСЧИТЫВАЕТСЯ! Золото
Дата: Зарегистрирован   [ Тип: внутренний ] Как тут cкачать?
MAGNET ссылка
MAGNET ссылка


Скачать .torrent

15 KB

Статус: проверено DHT
Скачан: торрент - 129 раз, раздача полностью - 28 раз
Размер: 1,46 GB
Оценка:  5 (Голосов: 1)
Поблагодарили: 5
Поделиться ссылкой на эту раздачу с друзьями:
В контактеFacebookОдноклассникиTwitterLivejournalМой МирLiveinternet
 

 
Показать сообщения:    


Вы не можете начинать темы
Вы не можете отвечать на сообщения
Вы не можете редактировать свои сообщения
Вы не можете удалять свои сообщения
Вы не можете голосовать в опросах
Вы не можете прикреплять файлы к сообщениям
Вы можете скачивать файлы