Loading...
Error

Скачать Отель Адлон. Семейная сага / Das Adlon. Eine Familiensaga (сезон 01) (Ули Эдел) [2013, драма, HDRip] [MVO (DreamRecords)] торрент без регистрации

 
Статистика раздачи
Размер:  3,72 GB   |    Скачан:  140 раз
Сидов:  1  [  0 KB/s  ]  
 
Автор Сообщение

МихаНЕзатор

[] 

Название: Отель Адлон. Семейная сага
Оригинальное название: Das Adlon. Eine Familiensaga
Год выпуска: 2013
Жанр: драма
Режиссер: Ули Эдел / Uli Edel

В ролях: Йозефине Пройсс (Sonja Schadt), Хайно Ферх (Louis Adlon), Мари Баумер (Hedda Adlon), Вотан Вильке Мёринг (Friedrich Loewe), Катарина Вакернагель (Margarete Loewe), Розмария Фендель (Sonja Schadt, (93)), Эми Мюбул (Pagenm”dchen), Кен Дюкен (Julian Zimmermann), Бургхарт Клаусснер (Lorenz Adlon), Йохан фон Бюлов (Sebastian von Tennen), Сунньи Меллес (Ottilie Schadt), Юрген Фогель (Siegfried von Tennen)

Описание: Отель «Адлон» - не только отображение истории легендарного Гранд Отеля у Бранденбургских ворот, но и в то же время захватывающее путешествие во времени. Всемирно известный отель хранит в себе тайны связи двух семей, более четырех поколений и приоткрывает завесу тайны императорского времени с 1907 года вплоть до нашего времени.

Страна: Германия
Продолжительность: 03 х ~ 01:30:00
Перевод: Профессиональный (многоголосый, закадровый) - DreamRecords
По заказу: фан-группы Жозефины (Йозефине) Пройсс (Josefine PreuЏ)
Субтитры: Нет

Перевод: Елена Юрченко
Озвучка: Светлана Чистохина, Мила Мирелли, Владимир Чистохин и Михаил Суслов
Работа со звуком: Алексей Фокин



Качество: HDRip
Формат: AVI
Видео: XviD, 704x400, ~1650 Kbps
Аудио: АС3, 48.0 KHz, 2 ch, 192 Кбит/с
Общее
Полное имя : D:Dian KehtDreamRecordsDas.Adlon.S01.HDRip.DreamRecordsDas.Adlon.S01E01.HDRip.DreamRecords.avi
Формат : AVI
Формат/Информация : Audio Video Interleave
Профиль формата : OpenDML
Размер файла : 1,26 Гбайт
Продолжительность : 1 ч. 36 м.
Общий поток : 1855 Кбит/сек
Название фильма : Das Adlon. Eine Familiensaga S01E01 'Teil 1' by SPS
Программа кодирования : Lavf54.63.104

Видео
Идентификатор : 0
Формат : xvid
Идентификатор кодека : xvid
Продолжительность : 1 ч. 36 м.
Битрейт : 1650 Кбит/сек
Ширина : 704 пикс.
Высота : 400 пикс.
Соотношение сторон : 16:9
Частота кадров : 25,000 кадр/сек
Бит/(Пиксели*Кадры) : 0.234
Размер потока : 1,12 Гбайт (89%)

Аудио
Идентификатор : 1
Формат : AC-3
Формат/Информация : Audio Coding 3
Расширение режима : CM (complete main)
Идентификатор кодека : 2000
Продолжительность : 1 ч. 36 м.
Вид битрейта : Постоянный
Битрейт : 192 Кбит/сек
Каналы : 2 канала
Расположение каналов : Front: L R
Частота : 48,0 КГц
Битовая глубина : 16 бит
Метод сжатия : С потерями
Размер потока : 31,5 Мбайт (2%)
Выравнивание : Соединение по промежуткам
Продолжительность промежутка : 135 мс. (3,38 видеокадра)



Скачать Отель.Адлон.Семейная.сага.Das.Adlon.Eine.Familiensaga.(сезон.01).(Ули.Эдел).[2013.драма.HDRip].[MVO.(DreamRecords)].torrent без регистрации
Золото ЗОЛОТАЯ РАЗДАЧА! СКАЧАННОЕ НЕ ЗАСЧИТЫВАЕТСЯ! Золото
Дата: Зарегистрирован   [ Тип: внутренний ] Как тут cкачать?
MAGNET ссылка
MAGNET ссылка


Скачать .torrent

19 KB

Статус: проверено DHT
Скачан: торрент - 140 раз, раздача полностью - 111 раз
Размер: 3,72 GB
Оценка:  - (Голосов: 0)
Поблагодарили: 0
Поделиться ссылкой на эту раздачу с друзьями:
В контактеFacebookОдноклассникиTwitterLivejournalМой МирLiveinternet
 

 
Показать сообщения:    


Вы не можете начинать темы
Вы не можете отвечать на сообщения
Вы не можете редактировать свои сообщения
Вы не можете удалять свои сообщения
Вы не можете голосовать в опросах
Вы не можете прикреплять файлы к сообщениям
Вы можете скачивать файлы