Loading...
Error

Скачать Одиссей / Odysseus (сезон 1, серия 1-7 из 12) ( Стефани Гьюсти) [2013, Исторические приключения , HDTVRip-AVC 1080p] [DD5.1] [BaibaKo] торрент без регистрации

 
Статистика раздачи
Размер:  12,12 GB   |    Скачан:  121 раз
Сидов:  1  [  0 KB/s  ]  
 
Автор Сообщение

Nikolai.Baranov

[] 



Одиссей / Odysseus




Год выпуска: 2013
Выпущено: Франция, Португалия, Италия, Making Prod, GMT Productions, Arte France
Жанр: Исторические приключения
Продолжительность: 00:43:00
Сезон: 1
Серия: 1-7
Количество серий в сезоне: 12
Озвучка:Профессиональная многоголосая закадровая( BaibaKo TV)Ольга Мотрич, Татьяна Оболевич, Владимир Курдов, Артемий Мирон и Виталий Ткаченко,Перевод: Алина Немирова
Субтитры: Русские



Режиссер: Стефани Гьюсти

В ролях: Нильс Шнайдер, Фанни Пальярд, Джозеф Малерба, Нуна Касановас, Катерина Мурино


Греция. VIII век до н.э. Вот уже 10 лет, как закончилась Троянская война. Царь Итаки Одиссей до сих пор не вернулся домой. Только его семья продолжает ждать и верить, что он жив. Стать царем вожделеют многие и настойчиво требуют от царицы Пенелопы вступить в повторный брак. Напряжение возрастает, и наступает момент, когда претенденты на трон больше не желают ждать.

Качество : HDTVRip-AVC 1080p
Формат: MPEG-4
Видео кодек: H264
Видео: 5206Кбит/сек,1920х1080(16.9),в 25.000кадр/сек,AVC(Baseline@L4.0)(1Ref Frames)
Аудио кодек: AAC
Аудио Russian Dolby Digital 5.1:277Кбит/сек,44.1КГц,6каналов,AAC,(Version4)(LC)


Звуковая дорожка сделана путем наложения чистого голоса озвучивателей на центральный канал оригинальной дорожки. Качество идентично звуковой дорожке.



01. De l'autre côté de la mer
02. Le duel
03. Ulysse est vivant
04. Faut-il tuer Télémaque?
05. La démocratie contre les barbares
06. Le retour d'Ulysse
07. La paix et les jeux

08. Les Troyennes
09. La vengeance d'Orion
10. Le mariage de Télémaque
11. Télémaque affronte Ulysse - 1 partie
12. Télémaque affronte Ulysse - 2 partie



General
Полное имя : D:\Ф А Н Т А С Т И К А +П Р И К Л Ю Ч Е Н И Я + Ф Э Н Т А З И\Одиссей\ODYSEUS_2013_S01_RUS[BaibaKo.tv]_DD5.1_x264_Nikolai.Baranov_HDTVRip-AVC_(1080p)\ODYSEUS_2013_S01E01_RUS[BaibaKo.tv]_DD5.1_x264_Nikolai.Baranov_HDTVRip-AVC_(1080p).mp4
Формат : MPEG-4
Профиль формата : Base Media
Идентификатор кодека : isom
Размер файла : 1.76 GiB
Продолжительность : 45mn 59s
Режим общего битрейта : Variable
Общий поток : 5 488 Kbps
Название фильма : BaibaKo.tv presents - Одиссей 1x01
Дата кодирования : UTC 2013-07-08 19:02:50
Дата пометки : UTC 2013-07-08 19:02:50
Программа кодирования : Lavf51.12.1

Video
Идентификатор : 1
Формат : AVC
Формат/Информация : Advanced Video Codec
Профиль формата : Baseline@L4.0
Параметр CABAC формата : No
Параметр ReFrames формата : 1 frame
Параметр GOP формата : M=1, N=12
Идентификатор кодека : avc1
Идентификатор кодека/Информация : Advanced Video Coding
Продолжительность : 45mn 59s
Вид битрейта : Variable
Битрейт : 5 206 Kbps
Максимальный битрейт : 7 500 Kbps
Ширина : 1 920 pixels
Высота : 1 080 pixels
Соотношение сторон : 16:9
Режим частоты кадров : Constant
Частота кадров : 25.000 fps
Частота кадров в оригинале : 24.000 fps
Цветовое пространство : YUV
Субдискретизация насыщенности : 4:2:0
Битовая глубина : 8 bits
Тип развёртки : Progressive
Бит/(Пиксели*Кадры) : 0.100
Размер потока : 1.67 GiB (95%)
Язык : French
Дата кодирования : UTC 2013-07-08 19:02:50
Дата пометки : UTC 2013-07-08 19:02:50

Audio
Идентификатор : 2
Формат : AAC
Формат/Информация : Advanced Audio Codec
Профиль формата : LC
Идентификатор кодека : 40
Продолжительность : 45mn 59s
Вид битрейта : Variable
Битрейт : 277 Kbps
Каналы : 6 channels
Расположение каналов : Front: L C R, Side: L R, LFE
Частота : 44.1 KHz
Метод сжатия : Lossy
Размер потока : 91.2 MiB (5%)
Язык : Russian
Дата кодирования : UTC 2013-07-08 19:02:50
Дата пометки : UTC 2013-07-08 19:02:50








Внимание! Раздача пополняется по мере выхода новых серий!



Раздача ведётся путём добавления новых серий; при каждом добавлении создётся новый торрент.
Чтобы начать докачку новой серии, пользователям необходимо сделать следующее:
1. остановить скачивание,
2. удалить старый торрент у себя из клиента (старые серии удалять не надо),
3. скачать новый торрент и запустить его у себя в клиенте вместо старого, при этом указать клиенту путь в старую папку, куда и должно происходить скачивание новых серий.

Ваш клиент при этом должен произвести хеширование (проверку) старой папки (если не производит сам - помогите ему сделать это), и будет докачивать только те серии которых у вас ещё нет. Старые серии при этом не удаляются, а продолжают раздаваться!

Eсли вы уже удалили старые серии, то предотвратить повторную закачку старых серий можно, отжав галочку в соответсвующих местах при запуске нового торрента. По возможности, желательно не удалять старые серии как можно дольше, чтобы релизёр не столько продолжал раздавать старые серии, а смог сконцентрироваться на новых.

Совет для тех, кто не хочет ждать перехеширования:
Создайте ещё одну папку рядом с папкой сериала (рядом, а не в ней!!!). Каждую новую серию после удачной загрузки копируйте в новую папку так чтобы ваша основная папка всегда была пуста. Когда ваш новый торрент предложит вам закачать все файлы, выберете только последнюю. Для сидирования же укажите адрес новой папки.

Как закачать отдельный файл из торрента или докачать ранее пропущенные файлы торрента!

1. Открыть торрент
2. Снять галки с тех файлов торрента, которые мы не хотим закачивать. Оставляем только на нужных нам файлах (файле).
3. Нажать О.К.

В клиенте utorrent

Инструкция

1) Открыть торрент


2) Снять галки с тех файлов торрента, которые мы не хотим закачивать:

* либо вручную, снимая с каждого файла галку( скрин №1)
* либо, нажав кнопку "Снять метки (Select None)", сняв сразу со всех файлов(скрин №2)
№1

№2

Оставляем только на нужных нам файлах (файле).

3)Нажать О.К




Релиз от: Nikolai.Baranov










Скачать Одиссей.Odysseus.(сезон.1.серия.1-7.из.12).(.Стефани.Гьюсти).[2013.Исторические.приключения.HDTVRip-AVC.1080p].[DD5.1].[BaibaKo].torrent без регистрации
Золото ЗОЛОТАЯ РАЗДАЧА! СКАЧАННОЕ НЕ ЗАСЧИТЫВАЕТСЯ! Золото
Дата: Зарегистрирован   [ Тип: внутренний ] Как тут cкачать?
MAGNET ссылка
MAGNET ссылка


Скачать .torrent

32 KB

Статус: проверено DHT
Скачан: торрент - 121 раз, раздача полностью - 5 раз
Размер: 12,12 GB
Оценка:  - (Голосов: 0)
Поблагодарили: 2
Поделиться ссылкой на эту раздачу с друзьями:
В контактеFacebookОдноклассникиTwitterLivejournalМой МирLiveinternet
 

 
Показать сообщения:    


Вы не можете начинать темы
Вы не можете отвечать на сообщения
Вы не можете редактировать свои сообщения
Вы не можете удалять свои сообщения
Вы не можете голосовать в опросах
Вы не можете прикреплять файлы к сообщениям
Вы можете скачивать файлы