Loading...
Error

Скачать Удар головой / Coup de tete (Жан-Жак Анно) [1979, комедия, драма, спорт, DVDRip-AVC] [MVO] торрент без регистрации

 
Статистика раздачи
Размер:  1,35 GB   |    Скачан:  102 раза
Сидов:  1  [  0 KB/s  ]  
 
Автор Сообщение

Marsianka

[] 

Информация о фильме
Название: Удар головой
Оригинальное название: Coup de tete
Год выхода: 1979
Жанр: комедия, драма, спорт
Режиссер: Жан-Жак Анно / Jean-Jacques Annaud
В ролях: Патрик Деваэр /Patrick Dewaere/, Франс Дуньяк /France Dougnac/, Дороте Джемма /Dorothee Jemma/, Морис Барье /Maurice Barrier/, Робер Дальбан /Robert Dalban/, Марио Давид /Mario David/, Юбер Дешамп /Hubert Deschamps/, Дора Долл /Dora Doll/, Франсуа Дирек /Francois Dyrek/, Мишель Фортен /Michel Fortin/, Жерар Эрнандес /Gerard Hernandez/, Корина Маршан /Corinne Marchand/, Мишель Омон /Michel Aumont/, Жан Буиз /Jean Bouise/

О фильме:
Сатирический и язвительный "Удар головой" с удивительным Патриком Деваэром в главной роли - история злоключений талантливого футболиста Франсуа Перрена, выгнанного из заводской команды и уволенного с завода, любовные похождения которого обернулись для него тюрьмой, веселила еще зрителей советского проката. Пройдя через множество недоразумений, Франсуа выручает свою команду и становится героем. Патрик Деваэр всегда играл "до полной гибели всерьез". Он ухитрялся даже в веселые свои роли вкладывать глубоко личную драму человека, который не может пережить разрушения романтических иллюзий и принять окружающий мир таким, каков он есть. (Subscribe.ru)



Страна: Франция
Студия: Gaumont, Societe Fran—aise de Production (SFP)
Продолжительность: 01:25:11
Перевод: Профессиональный (многоголосый, закадровый)

Файл
Кодек: h.264
Качество: DVDRip-AVC
Видео: 656x576 (1.618) @ 932x576 (анаморф), 25.000 fps, AVC, ~1919 Kbps, 0.203 bits/pixel
Звук:
Французский, 48.0 KHz, AC3, 2 ch, 224 Kbps
Русский, 48.0 KHz, AC3, 2 ch, 128 Kbps
Субтитры: нет

Исходник R2 + синхр. русская дорожка.
Общее
Уникальный идентификатор : 208545624804164977412710081933915013736 (0x9CE46D25CE6B11729F96F0D381FD4268)
Полное имя : D:FilmsUdar_golovoy.1979.DVDRip-AVC.mkv
Формат : Matroska
Версия формата : Version 4 / Version 2
Размер файла : 1,35 Гбайт
Продолжительность : 1 ч. 25 м.
Общий поток : 2273 Кбит/сек
Дата кодирования : UTC 2013-07-15 19:12:54
Программа кодирования : mkvmerge v6.2.0 ('Promised Land') built on Apr 28 2013 12:22:01
Библиотека кодирования : libebml v1.3.0 + libmatroska v1.4.0

Видео
Идентификатор : 1
Формат : AVC
Формат/Информация : Advanced Video Codec
Профиль формата : High@L4.1
Параметр CABAC формата : Да
Параметр ReFrames формата : 16 кадров
Идентификатор кодека : V_MPEG4/ISO/AVC
Продолжительность : 1 ч. 25 м.
Битрейт : 1919 Кбит/сек
Ширина : 656 пикселей
Высота : 576 пикселей
Соотношение сторон : 16:10
Соотношение сторон в оригинале : 16:10
Режим частоты кадров : Постоянный
Частота кадров : 25,000 кадров/сек
Цветовое пространство : YUV
Субдискретизация насыщенности : 4:2:0
Битовая глубина : 8 бит
Тип развёртки : Прогрессивная
Бит/(Пиксели*Кадры) : 0.203
Размер потока : 1,12 Гбайт (83%)
Библиотека кодирования : x264 core 133 r2334 a3ac64b
Настройки программы : cabac=1 / ref=16 / deblock=1:0:0 / analyse=0x3:0x133 / me=umh / subme=10 / psy=1 / psy_rd=1.05:0.10 / mixed_ref=1 / me_range=32 / chroma_me=1 / trellis=2 / 8x8dct=1 / cqm=0 / deadzone=21,11 / fast_pskip=0 / chroma_qp_offset=-3 / threads=8 / lookahead_threads=2 / sliced_threads=0 / nr=0 / decimate=0 / interlaced=0 / bluray_compat=0 / constrained_intra=0 / bframes=12 / b_pyramid=2 / b_adapt=2 / b_bias=0 / direct=3 / weightb=1 / open_gop=0 / weightp=2 / keyint=250 / keyint_min=25 / scenecut=40 / intra_refresh=0 / rc_lookahead=60 / rc=2pass / mbtree=0 / bitrate=1919 / ratetol=1.0 / qcomp=0.60 / qpmin=0 / qpmax=60 / qpstep=4 / cplxblur=20.0 / qblur=0.5 / vbv_maxrate=50000 / vbv_bufsize=62500 / nal_hrd=none / ip_ratio=1.40 / pb_ratio=1.30 / aq=1:1.00
Default : Нет
Forced : Нет
Коэффициенты матрицы : BT.601

Аудио #1
Идентификатор : 2
Формат : AC-3
Формат/Информация : Audio Coding 3
Расширение режима : CM (complete main)
Параметр Endianness формата : Big
Идентификатор кодека : A_AC3
Продолжительность : 1 ч. 25 м.
Вид битрейта : Постоянный
Битрейт : 224 Кбит/сек
Каналы : 2 канала
Расположение каналов : Front: L R
Частота : 48,0 КГц
Битовая глубина : 16 бит
Метод сжатия : С потерями
Размер потока : 136 Мбайт (10%)
Язык : French
Default : Нет
Forced : Нет

Аудио #2
Идентификатор : 3
Формат : AC-3
Формат/Информация : Audio Coding 3
Расширение режима : CM (complete main)
Параметр Endianness формата : Big
Идентификатор кодека : A_AC3
Продолжительность : 1 ч. 25 м.
Вид битрейта : Постоянный
Битрейт : 128 Кбит/сек
Каналы : 2 канала
Расположение каналов : Front: L R
Частота : 48,0 КГц
Битовая глубина : 16 бит
Метод сжатия : С потерями
Размер потока : 78,0 Мбайт (6%)
Язык : Russian
Default : Да
Forced : Нет

Меню
00:00:00.000 : en:Chapter 01
00:02:53.760 : en:Chapter 02
00:07:46.440 : en:Chapter 03
00:11:14.320 : en:Chapter 04
00:14:50.960 : en:Chapter 05
00:20:57.480 : en:Chapter 06
00:23:04.280 : en:Chapter 07
00:26:18.320 : en:Chapter 08
00:29:32.840 : en:Chapter 09
00:32:33.640 : en:Chapter 10
00:37:51.000 : en:Chapter 11
00:40:00.080 : en:Chapter 12
00:43:05.840 : en:Chapter 13
00:47:49.280 : en:Chapter 14
00:50:39.200 : en:Chapter 15
00:54:05.720 : en:Chapter 16
00:57:47.360 : en:Chapter 17
00:59:57.720 : en:Chapter 18
01:02:33.200 : en:Chapter 19
01:07:59.120 : en:Chapter 20
01:12:42.000 : en:Chapter 21
01:15:50.800 : en:Chapter 22
01:19:22.120 : en:Chapter 23
01:21:41.840 : en:Chapter 24
01:23:41.280 : en:Chapter 25
frame I:786 Avg QP:15.32 size: 54214
frame P:32397 Avg QP:18.33 size: 20295
frame B:94586 Avg QP:20.34 size: 5557
Релиз от: Temperest



Скачать Удар.головой.Coup.de.tete.(Жан-Жак.Анно).[1979.комедия.драма.спорт.DVDRip-AVC].[MVO].torrent без регистрации
Золото ЗОЛОТАЯ РАЗДАЧА! СКАЧАННОЕ НЕ ЗАСЧИТЫВАЕТСЯ! Золото
Дата: Зарегистрирован   [ Тип: внутренний ] Как тут cкачать?
MAGNET ссылка
MAGNET ссылка


Скачать .torrent

14 KB

Статус: проверено DHT
Скачан: торрент - 102 раз, раздача полностью - 8 раз
Размер: 1,35 GB
Оценка:  - (Голосов: 0)
Поблагодарили: 2
Поделиться ссылкой на эту раздачу с друзьями:
В контактеFacebookОдноклассникиTwitterLivejournalМой МирLiveinternet
 

 
Показать сообщения:    


Вы не можете начинать темы
Вы не можете отвечать на сообщения
Вы не можете редактировать свои сообщения
Вы не можете удалять свои сообщения
Вы не можете голосовать в опросах
Вы не можете прикреплять файлы к сообщениям
Вы можете скачивать файлы